[ create a new paste ] login | about

Link: http://codepad.org/pVAjE7DL    [ raw code | fork ]

Plain Text, pasted on Apr 20:
foobar2000 1.2.2 / Dynamic Range Meter 1.1.1
log date: 2013-04-08 12:49:01

--------------------------------------------------------------------------------
Analyzed: Isao Tomita / Symphony Ihatov (Hybrid Sacd)
--------------------------------------------------------------------------------

DR         Peak         RMS     Duration Track
--------------------------------------------------------------------------------
DR12      -0.46 dB   -18.90 dB      2:45 01-Symphony Ihatov: Iwatesan No Ohwashi (Taneyamagahara No Bokka)
DR10      -0.33 dB   -14.97 dB      4:10 02-Symphony Ihatov: Kenbai/Hoshimeguri No Uta
DR15      -0.30 dB   -19.04 dB      6:03 03-Symphony Ihatov: Chuumon No Ooi Ryoriten
DR12      -0.45 dB   -16.94 dB      4:36 04-Symphony Ihatov: Kaze No Matasaburou
DR14      -0.37 dB   -18.50 dB      8:53 05-Symphony Ihatov: Gingatetsudou No Yoru
DR15      -1.29 dB   -23.74 dB      5:10 06-Symphony Ihatov: Ame Nimo Makezu
DR14      -0.40 dB   -19.62 dB      4:15 07-Symphony Ihatov: Iwatesan No Oowashi (Taneyamagahara No Bokka)
DR10      -0.18 dB   -15.52 dB      3:44 08-Ribon No Kishi
DR9       -0.01 dB   -14.29 dB      3:19 09-Aoi Chikyu Wa Darenomono
--------------------------------------------------------------------------------

Number of tracks:  9
Official DR value: DR12

Samplerate:        88200 Hz
Channels:          2
Bits per sample:   24
Bitrate:           2676 kbps
Codec:             FLAC
================================================================================




Create a new paste based on this one


Comments: