[ create a new paste ] login | about

Link: http://codepad.org/pW2Yd0Rj    [ raw code | fork ]

Plain Text, pasted on Nov 24:
foobar2000 1.3.16 / Dynamic Range Meter 1.1.1
log date: 2017-11-24 06:48:59

--------------------------------------------------------------------------------
Analyzed: T. Rex / Electric Warrior (493 707-2)
--------------------------------------------------------------------------------

DR         Peak         RMS     Duration Track
--------------------------------------------------------------------------------
DR8       -0.95 dB   -10.38 dB      3:39 01-Mambo Sun
DR8       -0.76 dB   -10.79 dB      4:28 02-Cosmic Dancer
DR8       -0.96 dB   -10.47 dB      4:10 03-Jeepster
DR8       -0.90 dB   -10.91 dB      3:47 04-Monolith
DR9       -1.01 dB   -11.18 dB      3:00 05-Lean Woman Blues
DR8       -0.92 dB    -9.79 dB      4:26 06-Get It On
DR8       -0.89 dB   -10.46 dB      3:12 07-Planet Queen
DR9       -1.17 dB   -12.46 dB      2:31 08-Girl
DR9       -0.86 dB   -11.71 dB      3:59 09-The Motivator
DR9       -0.87 dB   -11.74 dB      2:24 10-Life's a Gas
DR8       -0.98 dB   -10.46 dB      3:40 11-Rip
--------------------------------------------------------------------------------

Number of tracks:  11
Official DR value: DR8

Samplerate:        44100 Hz
Channels:          2
Bits per sample:   16
Bitrate:           905 kbps
Codec:             FLAC
================================================================================




Create a new paste based on this one


Comments: