[ create a new paste ] login | about

Link: http://codepad.org/paVJKRs4    [ raw code | fork ]

Plain Text, pasted on Feb 15:
foobar2000 1.3.17 / Dynamic Range Meter 1.1.1
log date: 2018-02-14 21:02:59

--------------------------------------------------------------------------------
Analyzed: RUSH / HEMISPHERES
--------------------------------------------------------------------------------

DR         Peak         RMS     Duration Track
--------------------------------------------------------------------------------
DR13      -5.42 dB   -21.71 dB     18:05 01-Cygnus X-1 Book II: Hemispheres
DR13      -6.06 dB   -21.04 dB      3:41 02-Circumstances
DR13      -6.06 dB   -22.86 dB      4:44 03-The Trees
DR13      -5.33 dB   -22.47 dB      9:38 04-La Villa Strangiato (An Exercise in Self-Indulgence)
--------------------------------------------------------------------------------

Number of tracks:  4
Official DR value: DR13

Samplerate:        2822400 Hz / PCM Samplerate: 176400 Hz
Channels:          2
Bits per sample:   1
Bitrate:           5645 kbps
Codec:             DSD64
================================================================================




Create a new paste based on this one


Comments: