[ create a new paste ] login | about

Link: http://codepad.org/paiUOIlH    [ raw code | fork ]

Plain Text, pasted on May 30:
foobar2000 1.3 / Dynamic Range Meter 1.1.1
log date: 2015-01-26 12:08:42

--------------------------------------------------------------------------------
Analyzed: Weezer / Weezer (2014 MFSL Hybrid SACD)
--------------------------------------------------------------------------------

DR         Peak         RMS     Duration Track
--------------------------------------------------------------------------------
DR10      -1.29 dB   -13.17 dB      3:25 01-My Name Is Jonas
DR10      -1.38 dB   -13.10 dB      3:06 02-No One Else
DR9       -1.16 dB   -11.05 dB      4:19 03-The World Has Turned And Left Me Here
DR9       -1.01 dB   -11.04 dB      2:40 04-Buddy Holly
DR9       -1.23 dB   -12.49 dB      5:08 05-Undone - The Sweater Song
DR9       -1.43 dB   -12.69 dB      3:06 06-Surf Wax America
DR10      -2.13 dB   -14.52 dB      4:18 07-Say It Ain't So
DR10      -1.79 dB   -13.61 dB      3:56 08-In The Garage
DR9       -0.91 dB   -11.85 dB      3:24 09-Holiday
DR9       -0.31 dB   -12.97 dB      8:03 10-Only In Dreams
--------------------------------------------------------------------------------

Number of tracks:  10
Official DR value: DR9

Samplerate:        88200 Hz
Channels:          2
Bits per sample:   24
Bitrate:           2626 kbps
Codec:             FLAC
================================================================================




Create a new paste based on this one


Comments: