[ create a new paste ] login | about

Link: http://codepad.org/pbMOM2eW    [ raw code | fork ]

Plain Text, pasted on Dec 11:
Exact Audio Copy V1.2 from 12. August 2016

EAC extraction logfile from 16. November 2016, 20:35

John Lennon & Yoko Ono  / Double Fantasy - Original Album (Disc 2) (5099990599026)

Used drive  : PLEXTOR DVDR   PX-891SA   Adapter: 1  ID: 0

Read mode               : Secure
Utilize accurate stream : Yes
Defeat audio cache      : Yes
Make use of C2 pointers : No

Read offset correction                      : 6
Overread into Lead-In and Lead-Out          : No
Fill up missing offset samples with silence : Yes
Delete leading and trailing silent blocks   : No
Null samples used in CRC calculations       : Yes
Used interface                              : Native Win32 interface for Win NT & 2000

Used output format              : User Defined Encoder
Selected bitrate                : 128 kBit/s
Quality                         : High
Add ID3 tag                     : No
Command line compressor         : C:\Program Files (x86)\Exact Audio Copy\Flac\flac.exe
Additional command line options :   -V -8 -T "Genre=%genre%" -T "Artist=%artist%" -T "Title=%title%" -T "Album=%albumtitle%" -T "Date=%year%" -T "Tracknumber=%tracknr%" -T "Comment=%comment%" %source%


TOC of the extracted CD

     Track |   Start  |  Length  | Start sector | End sector 
    ---------------------------------------------------------
        1  |  0:00.00 |  3:56.41 |         0    |    17740   
        2  |  3:56.41 |  2:41.74 |     17741    |    29889   
        3  |  6:38.40 |  2:58.44 |     29890    |    43283   
        4  |  9:37.09 |  1:34.70 |     43284    |    50403   
        5  | 11:12.04 |  3:57.12 |     50404    |    68190   
        6  | 15:09.16 |  2:21.73 |     68191    |    78838   
        7  | 17:31.14 |  4:05.52 |     78839    |    97265   
        8  | 21:36.66 |  3:59.70 |     97266    |   115260   
        9  | 25:36.61 |  3:09.33 |    115261    |   129468   
       10  | 28:46.19 |  3:32.70 |    129469    |   145438   
       11  | 32:19.14 |  2:55.33 |    145439    |   158596   
       12  | 35:14.47 |  2:34.45 |    158597    |   170191   
       13  | 37:49.17 |  4:03.01 |    170192    |   188417   
       14  | 41:52.18 |  3:19.31 |    188418    |   203373   


Range status and errors

Selected range

     Filename H:\dafnaplus\John Lennon & Yoko Ono - Double Fantasy-Stripped Down\Disc 2\John Lennon & Yoko Ono  - Double Fantasy - Original Album (Disc 2) (5099990599026).wav

     Peak level 97.7 %
     Extraction speed 7.7 X
     Range quality 100.0 %
     Test CRC B0E37F65
     Copy CRC B0E37F65
     Copy OK

No errors occurred

 
AccurateRip summary
 
Track  1  accurately ripped (confidence 126)  [EC93564A]  (AR v2)
Track  2  accurately ripped (confidence 123)  [18E5254D]  (AR v2)
Track  3  accurately ripped (confidence 126)  [9822C4EF]  (AR v2)
Track  4  accurately ripped (confidence 124)  [2849D6F4]  (AR v2)
Track  5  accurately ripped (confidence 127)  [7C49AD05]  (AR v2)
Track  6  accurately ripped (confidence 122)  [EA280D52]  (AR v2)
Track  7  accurately ripped (confidence 126)  [165077E8]  (AR v2)
Track  8  accurately ripped (confidence 125)  [602A6A2D]  (AR v2)
Track  9  accurately ripped (confidence 122)  [94B70D21]  (AR v2)
Track 10  accurately ripped (confidence 126)  [8E7A82E1]  (AR v2)
Track 11  accurately ripped (confidence 122)  [F4A5A635]  (AR v2)
Track 12  accurately ripped (confidence 124)  [C67984EE]  (AR v2)
Track 13  accurately ripped (confidence 122)  [9DA5A484]  (AR v2)
Track 14  accurately ripped (confidence 121)  [B8DD41CD]  (AR v2)
 
All tracks accurately ripped

End of status report

---- CUETools DB Plugin V2.1.6

[CTDB TOCID: k75NhBMhTGpQ07YcGSKTKUlgPTw-] found
Submit result: already submitted
Track | CTDB Status
  1   | (210/212) Accurately ripped
  2   | (210/212) Accurately ripped
  3   | (210/212) Accurately ripped
  4   | (210/212) Accurately ripped
  5   | (208/212) Accurately ripped
  6   | (210/212) Accurately ripped
  7   | (210/212) Accurately ripped
  8   | (209/212) Accurately ripped
  9   | (207/212) Accurately ripped
 10   | (208/212) Accurately ripped
 11   | (210/212) Accurately ripped
 12   | (210/212) Accurately ripped
 13   | (210/212) Accurately ripped
 14   | (209/212) Accurately ripped


==== Log checksum 37202685E2D21DC8FAC5E6708908B2969CBE7A49047E794E629EE994A19D751F ====



Create a new paste based on this one


Comments: