[ create a new paste ] login | about

Link: http://codepad.org/pbprshdl    [ raw code | fork ]

Plain Text, pasted on Sep 18:
foobar2000 1.4.6 / Dynamic Range Meter 1.1.1
log date: 2019-09-17 11:45:09

--------------------------------------------------------------------------------
Analyzed: Ray Charles / Modern Sounds In Country And Western Music, Vols 1 & 2
--------------------------------------------------------------------------------

DR         Peak         RMS     Duration Track
--------------------------------------------------------------------------------
DR12      -0.31 dB   -15.09 dB      2:13 01-Bye Bye Love
DR11      -2.65 dB   -16.96 dB      3:17 02-You Don't Know Me
DR12      -1.22 dB   -17.14 dB      3:29 03-Half As Much
DR12      -3.95 dB   -19.29 dB      3:37 04-I Love You So Much It Hurts
DR12      -2.57 dB   -16.92 dB      3:31 05-Just A Little Lovin’ (Will Go A Long Way)
DR12      -2.76 dB   -18.36 dB      3:21 06-Born To Lose
DR11      -1.88 dB   -16.95 dB      2:56 07-Worried Mind
DR13      -2.12 dB   -18.51 dB      3:35 08-It Makes No Difference Now
DR10      -1.83 dB   -15.90 dB      3:34 09-You Win Again
DR11      -3.29 dB   -17.56 dB      4:02 10-Careless Love
DR10      -1.77 dB   -16.07 dB      4:16 11-I Can't Stop Loving You
DR10      -1.07 dB   -13.87 dB      2:12 12-Hey, Good Lookin'
DR11      -0.64 dB   -15.35 dB      2:59 13-You Are My Sunshine
DR12      -2.63 dB   -17.96 dB      3:01 14-No Letter Today
DR10      -2.21 dB   -16.01 dB      2:41 15-Someday (You’ll Want Me To Want You)
DR10      -1.62 dB   -14.70 dB      2:08 16-Don't Tell Me Your Troubles
DR11      -2.31 dB   -16.78 dB      3:17 17-Midnight
DR12      -0.88 dB   -15.60 dB      2:10 18-Oh, Lonesome Me
DR10      -3.04 dB   -17.01 dB      2:57 19-Take These Chains From My Heart
DR10      -2.47 dB   -16.75 dB      3:36 20-Your Cheatin' Heart
DR11      -2.72 dB   -17.45 dB      2:19 21-I'll Never Stand In Your Way
DR11      -2.29 dB   -17.06 dB      2:53 22-Making Believe
DR10      -5.01 dB   -18.24 dB      3:03 23-Teardrops In My Heart
DR10      -2.83 dB   -17.00 dB      3:15 24-Hang Your Head In Shame
--------------------------------------------------------------------------------

Number of tracks:  24
Official DR value: DR11

Samplerate:        44100 Hz
Channels:          2
Bits per sample:   16
Bitrate:           769 kbps
Codec:             FLAC
================================================================================




Create a new paste based on this one


Comments: