[ create a new paste ] login | about

Link: http://codepad.org/pcpkgDcq    [ raw code | fork ]

Plain Text, pasted on Nov 23:
[CUETools log; Date: 11/23/2016 7:35:54 AM; Version: 2.1.5]
Pregap length 00:00:10.
[CTDB TOCID: LEqznPctRx43g7OEQ4uDlT9mrfI-] found.
Track | CTDB Status
  1   | (14/14) Accurately ripped
  2   | (14/14) Accurately ripped
  3   | (14/14) Accurately ripped
  4   | (14/14) Accurately ripped
  5   | (14/14) Accurately ripped
  6   | (14/14) Accurately ripped
  7   | (14/14) Accurately ripped
  8   | (14/14) Accurately ripped
  9   | (14/14) Accurately ripped
 10   | (14/14) Accurately ripped
 11   | (14/14) Accurately ripped
 12   | (14/14) Accurately ripped
[AccurateRip ID: 001bb812-0101bd55-ba0e800c] found.
Track   [  CRC   |   V2   ] Status
 01     [87a61c30|a945e243] (09+22/41) Accurately ripped
 02     [20949a20|8dbe5b03] (09+22/41) Accurately ripped
 03     [4df1bcaa|56747d2d] (09+22/41) Accurately ripped
 04     [5e518ea3|7b557e27] (09+22/41) Accurately ripped
 05     [8cc6994b|62db5105] (09+22/41) Accurately ripped
 06     [8e2a2006|d48920ae] (09+22/41) Accurately ripped
 07     [485ed54f|e9797195] (09+22/41) Accurately ripped
 08     [e0cf3773|720c93ab] (09+22/41) Accurately ripped
 09     [221d1a24|a4652304] (09+22/41) Accurately ripped
 10     [58495391|991347d2] (09+22/41) Accurately ripped
 11     [e439d487|cfe5c02d] (09+22/41) Accurately ripped
 12     [02e8c62a|fc1bbf5a] (09+22/40) Accurately ripped
Offsetted by -6:
 01     [30f27153] (07/41) Accurately ripped
 02     [944ebc6c] (07/41) Accurately ripped
 03     [3313c725] (07/41) Accurately ripped
 04     [3388826c] (07/41) Accurately ripped
 05     [8418c09f] (07/41) Accurately ripped
 06     [2641535c] (07/41) Accurately ripped
 07     [832958c4] (07/41) Accurately ripped
 08     [771aa08a] (07/41) Accurately ripped
 09     [602e2f7e] (07/41) Accurately ripped
 10     [06161f2f] (07/41) Accurately ripped
 11     [eb9830bf] (07/41) Accurately ripped
 12     [cce957b5] (06/40) Accurately ripped

Track Peak [ CRC32  ] [W/O NULL] [  LOG   ]
 --  100.0 [F26D5A69] [5840E17A]   CRC32   
 01  100.0 [55B0481F] [0C04E841]           
 02  100.0 [D1BDE325] [D6C98409]           
 03  100.0 [579D26D5] [041A7247]           
 04  100.0 [28DFF5AF] [C264823D]           
 05  100.0 [639C0551] [60C52605]           
 06  100.0 [F748C3CE] [DE642A04]           
 07  100.0 [5944ED7E] [C93FF20D]           
 08  100.0 [0B62C1FB] [2F4734BC]           
 09  100.0 [E7AFADD5] [6381CCAB]           
 10  100.0 [3087A4DC] [D0596DA5]           
 11  100.0 [C7DAAFAF] [71017B0D]           
 12  100.0 [9DB43FB9] [0726FFCD]           



Create a new paste based on this one


Comments: