[ create a new paste ] login | about

Link: http://codepad.org/peKzMpzz    [ raw code | fork ]

Plain Text, pasted on Aug 1:
[CUETools log; Date: 8/1/2019 11:43:24 AM; Version: 2.1.5]
CD-Extra data track length 26:00:51.
[CTDB TOCID: 5b2rX6s720SNi.6ZS1AIzdHJRqo-] found.
Track | CTDB Status
  1   | (2280/3461) Accurately ripped, or (3/3461) differs in 14 samples @00:56:21-00:56:22
  2   | (2286/3461) Accurately ripped
  3   | (2288/3461) Accurately ripped
  4   | (2290/3461) Accurately ripped
  5   | (2293/3461) Accurately ripped
  6   | (2285/3461) Accurately ripped
  7   | (2292/3461) Accurately ripped
  8   | (2291/3461) Accurately ripped
  9   | (2287/3461) Accurately ripped
 10   | (2285/3461) Accurately ripped
 11   | (2286/3461) Accurately ripped
 12   | (2280/3461) Accurately ripped
[AccurateRip ID: 00120b99-00acec1b-a90eef0d] found.
Track   [  CRC   |   V2   ] Status
 01     [a40b8c09|09b0b8fa] (200+200/1352) Accurately ripped
 02     [60a58ad4|36c7ac58] (200+200/1351) Accurately ripped
 03     [4ae1cda0|1851432b] (200+200/1350) Accurately ripped
 04     [1ca1a024|2f6bc267] (200+200/1351) Accurately ripped
 05     [a21f8ecf|938dac43] (200+200/1352) Accurately ripped
 06     [f9069735|db4c8880] (200+200/1354) Accurately ripped
 07     [dc8782f6|35a3d875] (200+200/1350) Accurately ripped
 08     [34c7c69c|a82c3f28] (200+200/1350) Accurately ripped
 09     [b92284db|d4e6dc47] (200+200/1351) Accurately ripped
 10     [4f1e11a6|9f5dcbd3] (200+200/1351) Accurately ripped
 11     [d4df69e5|0814d0c5] (200+200/1348) Accurately ripped
 12     [bf8b27af|b370b802] (200+200/1353) Accurately ripped
Offsetted by -1382:
 01     [d23b3f26] (003/1352) Accurately ripped
 02     [9cbd3ebd] (003/1351) Accurately ripped
 03     [f1708746] (003/1350) Accurately ripped
 04     [38b861af] (003/1351) Accurately ripped
 05     [b64e9a98] (003/1352) Accurately ripped
 06     [ba6d1705] (003/1354) Accurately ripped
 07     [3d5343e8] (003/1350) Accurately ripped
 08     [ecac4e13] (003/1350) Accurately ripped
 09     [47467ef9] (003/1351) Accurately ripped
 10     [adf6df46] (003/1351) Accurately ripped
 11     [d1ff6751] (003/1348) Accurately ripped
 12     [7319617a] (003/1353) Accurately ripped
Offsetted by -694:
 01     [6c9e5463] (003/1352) Accurately ripped
 02     [7a4da522] (003/1351) Accurately ripped
 03     [bf0c9495] (003/1350) Accurately ripped
 04     [7e9f0f95] (003/1351) Accurately ripped
 05     [544460e2] (003/1352) Accurately ripped
 06     [f94ed5c9] (003/1354) Accurately ripped
 07     [cff974ce] (003/1350) Accurately ripped
 08     [f6616330] (003/1350) Accurately ripped
 09     [b6624d15] (003/1351) Accurately ripped
 10     [1eaaca2b] (003/1351) Accurately ripped
 11     [c3227b88] (003/1348) Accurately ripped
 12     [2f0d231e] (003/1353) Accurately ripped
Offsetted by -60:
 01     [19435081] (002/1352) Accurately ripped
 02     [a70d9dfb] (002/1351) Accurately ripped
 03     [efb97db1] (002/1350) Accurately ripped
 04     [3e971376] (002/1351) Accurately ripped
 05     [3e0e84bb] (002/1352) Accurately ripped
 06     [739a14dc] (002/1354) Accurately ripped
 07     [b84703c2] (002/1350) Accurately ripped
 08     [5273f669] (002/1350) Accurately ripped
 09     [2f2888da] (002/1351) Accurately ripped
 10     [ebfa9f8c] (002/1351) Accurately ripped
 11     [83f07314] (002/1348) Accurately ripped
 12     [4bbed9b1] (002/1353) Accurately ripped
Offsetted by -30:
 01     [b26268ea] (008/1352) Accurately ripped
 02     [d67f4a3a] (008/1351) Accurately ripped
 03     [27631999] (008/1350) Accurately ripped
 04     [52585a58] (008/1351) Accurately ripped
 05     [fedacba8] (008/1352) Accurately ripped
 06     [e6204925] (008/1354) Accurately ripped
 07     [24fd1058] (008/1350) Accurately ripped
 08     [18495bcb] (008/1350) Accurately ripped
 09     [71fbd5f9] (008/1351) Accurately ripped
 10     [b2b93d40] (008/1351) Accurately ripped
 11     [26ddbd67] (008/1348) Accurately ripped
 12     [01a87d71] (008/1353) Accurately ripped
Offsetted by -19:
 01     [dd0b3133] (003/1352) Accurately ripped
 02     [a7c40411] (003/1351) Accurately ripped
 03     [0e8b8dc1] (003/1350) Accurately ripped
 04     [04259afc] (003/1351) Accurately ripped
 05     [0328ebed] (003/1352) Accurately ripped
 06     [666d0d7e] (003/1354) Accurately ripped
 07     [74233c21] (003/1350) Accurately ripped
 08     [3b44a0e0] (003/1350) Accurately ripped
 09     [27322bbc] (003/1351) Accurately ripped
 10     [45a19f25] (003/1351) Accurately ripped
 11     [ca17bf44] (003/1348) Accurately ripped
 12     [9b662183] (003/1353) Accurately ripped
Offsetted by -6:
 01     [2e2db252] (003/1352) Accurately ripped
 02     [8ff13a52] (003/1351) Accurately ripped
 03     [a5a0e991] (003/1350) Accurately ripped
 04     [028016ef] (003/1351) Accurately ripped
 05     [f4aeda6f] (003/1352) Accurately ripped
 06     [4601779d] (003/1354) Accurately ripped
 07     [215f18f7] (003/1350) Accurately ripped
 08     [f53b67ac] (003/1350) Accurately ripped
 09     [cd392c5c] (003/1351) Accurately ripped
 10     [41d85e47] (003/1351) Accurately ripped
 11     [8d84d52d] (003/1348) Accurately ripped
 12     [98d59ec7] (003/1353) Accurately ripped
Offsetted by 6:
 01     [2cbb3104] (200/1352) Accurately ripped
 02     [d5f12efe] (200/1351) Accurately ripped
 03     [5462cda4] (200/1350) Accurately ripped
 04     [77c66d38] (200/1351) Accurately ripped
 05     [7fcae432] (200/1352) Accurately ripped
 06     [4451316a] (200/1354) Accurately ripped
 07     [b4fec195] (200/1350) Accurately ripped
 08     [11bdbc7c] (200/1350) Accurately ripped
 09     [25af866e] (200/1351) Accurately ripped
 10     [2db5c46a] (200/1351) Accurately ripped
 11     [98b7aaf6] (200/1348) Accurately ripped
 12     [e6a4b0d1] (200/1353) Accurately ripped
Offsetted by -712:
 01     [98a4af3c] (000/1352) No match (V2 was not tested)
 02     [8b919006] (000/1351) No match (V2 was not tested)
 03     [6b70f1bb] (000/1350) No match (V2 was not tested)
 04     [91b00c9c] (000/1351) No match (V2 was not tested)
 05     [5d863d74] (000/1352) No match (V2 was not tested)
 06     [89d88425] (000/1354) No match (V2 was not tested)
 07     [5cb07947] (000/1350) No match (V2 was not tested)
 08     [841a476e] (000/1350) No match (V2 was not tested)
 09     [0279c705] (000/1351) No match (V2 was not tested)
 10     [03b4e65c] (000/1351) No match
 11     [9a0ecc29] (000/1348) No match (V2 was not tested)
 12     [b3b56fab] (000/1353) No match (V2 was not tested)
Offsetted by -684:
 01     [07624b54] (000/1352) No match (V2 was not tested)
 02     [2a135d69] (000/1351) No match (V2 was not tested)
 03     [94c1e9c0] (000/1350) No match (V2 was not tested)
 04     [384a0794] (000/1351) No match (V2 was not tested)
 05     [5feaad14] (000/1352) No match (V2 was not tested)
 06     [e4e5b4db] (000/1354) No match (V2 was not tested)
 07     [77a33b0a] (000/1350) No match (V2 was not tested)
 08     [53809ed7] (000/1350) No match (V2 was not tested)
 09     [a4575a60] (000/1351) No match (V2 was not tested)
 10     [e9422253] (000/1351) No match (V2 was not tested)
 11     [3505938b] (000/1348) No match (V2 was not tested)
 12     [1f6c6b11] (000/1353) No match (V2 was not tested)
Offsetted by -667:
 01     [1f52c95f] (000/1352) No match (V2 was not tested)
 02     [20863c7c] (000/1351) No match (V2 was not tested)
 03     [f38f9317] (000/1350) No match (V2 was not tested)
 04     [d3e8167a] (000/1351) No match (V2 was not tested)
 05     [1c9b35f6] (000/1352) No match (V2 was not tested)
 06     [820339c6] (000/1354) No match (V2 was not tested)
 07     [5ec3b8d6] (000/1350) No match (V2 was not tested)
 08     [65f5ddb3] (000/1350) No match (V2 was not tested)
 09     [00fac319] (000/1351) No match (V2 was not tested)
 10     [52a74b65] (000/1351) No match (V2 was not tested)
 11     [7c8955e8] (000/1348) No match (V2 was not tested)
 12     [ecd3b31e] (000/1353) No match (V2 was not tested)
Offsetted by -132:
 01     [83cfbd0f] (000/1352) No match (V2 was not tested)
 02     [628d426b] (000/1351) No match (V2 was not tested)
 03     [6825423c] (000/1350) No match (V2 was not tested)
 04     [b1df2bf6] (000/1351) No match (V2 was not tested)
 05     [50dcdb48] (000/1352) No match (V2 was not tested)
 06     [5c3942a8] (000/1354) No match (V2 was not tested)
 07     [b56e8022] (000/1350) No match (V2 was not tested)
 08     [50df2ae4] (000/1350) No match (V2 was not tested)
 09     [73438326] (000/1351) No match (V2 was not tested)
 10     [ec6fb0c9] (000/1351) No match (V2 was not tested)
 11     [285e3f91] (000/1348) No match (V2 was not tested)
 12     [a2408f42] (000/1353) No match (V2 was not tested)
Offsetted by -96:
 01     [1ffd6b08] (000/1352) No match (V2 was not tested)
 02     [2b9001d5] (000/1351) No match (V2 was not tested)
 03     [9c12a4ac] (000/1350) No match (V2 was not tested)
 04     [f2d9a93b] (000/1351) No match (V2 was not tested)
 05     [ad26b012] (000/1352) No match (V2 was not tested)
 06     [73f8caab] (000/1354) No match (V2 was not tested)
 07     [02cc9e0b] (000/1350) No match (V2 was not tested)
 08     [19f293f9] (000/1350) No match (V2 was not tested)
 09     [5e078ce9] (000/1351) No match (V2 was not tested)
 10     [a187bd75] (000/1351) No match (V2 was not tested)
 11     [47bcd288] (000/1348) No match (V2 was not tested)
 12     [754db41d] (000/1353) No match (V2 was not tested)
Offsetted by -66:
 01     [072d94c6] (000/1352) No match (V2 was not tested)
 02     [6228197f] (000/1351) No match (V2 was not tested)
 03     [13f5293b] (000/1350) No match (V2 was not tested)
 04     [70bead4d] (000/1351) No match (V2 was not tested)
 05     [f0e50dd1] (000/1352) No match (V2 was not tested)
 06     [6056ceae] (000/1354) No match (V2 was not tested)
 07     [71648b86] (000/1350) No match (V2 was not tested)
 08     [ddf3ca98] (000/1350) No match (V2 was not tested)
 09     [1b15f960] (000/1351) No match (V2 was not tested)
 10     [4636acda] (000/1351) No match (V2 was not tested)
 11     [2b07e5f6] (000/1348) No match (V2 was not tested)
 12     [27a75310] (000/1353) No match (V2 was not tested)
Offsetted by -48:
 01     [13d1b659] (000/1352) No match (V2 was not tested)
 02     [f3ca6625] (000/1351) No match (V2 was not tested)
 03     [16a0b04d] (000/1350) No match (V2 was not tested)
 04     [6b16be96] (000/1351) No match (V2 was not tested)
 05     [e5ba6cb0] (000/1352) No match (V2 was not tested)
 06     [3f18dfaa] (000/1354) No match (V2 was not tested)
 07     [71e38ee0] (000/1350) No match (V2 was not tested)
 08     [763f49ad] (000/1350) No match (V2 was not tested)
 09     [3188d775] (000/1351) No match (V2 was not tested)
 10     [a7b100d2] (000/1351) No match (V2 was not tested)
 11     [98620aa0] (000/1348) No match (V2 was not tested)
 12     [9413e765] (000/1353) No match (V2 was not tested)

Track Peak [ CRC32  ] [W/O NULL] [  LOG   ]
 --   96.6 [0349AEF3] [5F2509F6]   CRC32   
 01   95.8 [9EA79000] [9C13ED3A]           
 02   96.1 [C289FDFB] [179207BD]           
 03   79.3 [919FB1B7] [DB01772F]           
 04   96.6 [34E4D78A] [543BFDEB]           
 05   95.7 [3CFB9FFF] [169DDAAA]           
 06   95.8 [E632E069] [6D39DC75]           
 07   90.8 [ADAAB8C9] [B189CE00]           
 08   95.8 [49A79B4B] [B82B08BB]           
 09   95.8 [5E7025D8] [CC2EBDFA]           
 10   95.8 [EDA8E559] [D59CC876]           
 11   96.0 [F4E468C2] [CD92EDBD]           
 12   95.8 [EF364224] [D942FF03]           



Create a new paste based on this one


Comments: