[ create a new paste ] login | about

Link: http://codepad.org/pf4dppyY    [ raw code | fork ]

Plain Text, pasted on Oct 3:
Exact Audio Copy V0.99 prebeta 5 from 4. May 2009

EAC extraction logfile from 22. January 2010, 19:36

Etta James / The Definitive Collection

Used drive  : PLEXTOR DVDR   PX-760A   Adapter: 0  ID: 0

Read mode               : Secure
Utilize accurate stream : Yes
Defeat audio cache      : Yes
Make use of C2 pointers : No

Read offset correction                      : 30
Overread into Lead-In and Lead-Out          : No
Fill up missing offset samples with silence : Yes
Delete leading and trailing silent blocks   : No
Null samples used in CRC calculations       : Yes
Used interface                              : Native Win32 interface for Win NT & 2000
Gap handling                                : Appended to previous track

Used output format : Internal WAV Routines
Sample format      : 44.100 Hz; 16 Bit; Stereo


TOC of the extracted CD

     Track |   Start  |  Length  | Start sector | End sector 
    ---------------------------------------------------------
        1  |  0:00.00 |  2:58.66 |         0    |    13415   
        2  |  2:58.66 |  2:24.13 |     13416    |    24228   
        3  |  5:23.04 |  2:44.25 |     24229    |    36553   
        4  |  8:07.29 |  2:56.52 |     36554    |    49805   
        5  | 11:04.06 |  3:00.53 |     49806    |    63358   
        6  | 14:04.59 |  3:04.49 |     63359    |    77207   
        7  | 17:09.33 |  3:01.16 |     77208    |    90798   
        8  | 20:10.49 |  2:26.67 |     90799    |   101815   
        9  | 22:37.41 |  3:17.50 |    101816    |   116640   
       10  | 25:55.16 |  3:00.00 |    116641    |   130140   
       11  | 28:55.16 |  2:49.55 |    130141    |   142870   
       12  | 31:44.71 |  2:52.03 |    142871    |   155773   
       13  | 34:36.74 |  2:57.00 |    155774    |   169048   
       14  | 37:33.74 |  2:24.07 |    169049    |   179855   
       15  | 39:58.06 |  2:35.58 |    179856    |   191538   
       16  | 42:33.64 |  2:29.32 |    191539    |   202745   
       17  | 45:03.21 |  5:34.70 |    202746    |   227865   
       18  | 50:38.16 |  4:05.68 |    227866    |   246308   
       19  | 54:44.09 |  4:11.02 |    246309    |   265135   
       20  | 58:55.11 |  3:50.50 |    265136    |   282435   
       21  | 62:45.61 |  4:27.03 |    282436    |   302463   
       22  | 67:12.64 |  4:22.25 |    302464    |   322138   
       23  | 71:35.14 |  3:58.38 |    322139    |   340026   


Track  1

     Filename L:\Torrents\Etta James - The Definitive Collection (2006) [FLAC]\01 - The Wallflower (Dance With Me Henry).wav

     Pre-gap length  0:00:02.00

     Peak level 100.0 %
     Track quality 100.0 %
     Test CRC 2C73F523
     Copy CRC 2C73F523
     Accurately ripped (confidence 26)  [73F3B236]
     Copy OK

Track  2

     Filename L:\Torrents\Etta James - The Definitive Collection (2006) [FLAC]\02 - Good Rockin' Daddy.wav

     Pre-gap length  0:00:01.43

     Peak level 100.0 %
     Track quality 100.0 %
     Test CRC C55A7DF9
     Copy CRC C55A7DF9
     Accurately ripped (confidence 26)  [D33063B4]
     Copy OK

Track  3

     Filename L:\Torrents\Etta James - The Definitive Collection (2006) [FLAC]\03 - W-O-M-A-N.wav

     Pre-gap length  0:00:01.42

     Peak level 100.0 %
     Track quality 100.0 %
     Test CRC 04893D86
     Copy CRC 04893D86
     Accurately ripped (confidence 26)  [CE129AF0]
     Copy OK

Track  4

     Filename L:\Torrents\Etta James - The Definitive Collection (2006) [FLAC]\04 - All I Could Do Is Cry.wav

     Pre-gap length  0:00:01.44

     Peak level 68.8 %
     Track quality 100.0 %
     Test CRC 3904C7DC
     Copy CRC 3904C7DC
     Accurately ripped (confidence 26)  [579844D6]
     Copy OK

Track  5

     Filename L:\Torrents\Etta James - The Definitive Collection (2006) [FLAC]\05 - If I Can't Have You.wav

     Pre-gap length  0:00:01.42

     Peak level 74.3 %
     Track quality 100.0 %
     Test CRC 864EC935
     Copy CRC 864EC935
     Accurately ripped (confidence 26)  [E2EEF350]
     Copy OK

Track  6

     Filename L:\Torrents\Etta James - The Definitive Collection (2006) [FLAC]\06 - My Dearest Darling.wav

     Pre-gap length  0:00:01.42

     Peak level 78.4 %
     Track quality 100.0 %
     Test CRC E3BFA0AA
     Copy CRC E3BFA0AA
     Accurately ripped (confidence 26)  [42393B33]
     Copy OK

Track  7

     Filename L:\Torrents\Etta James - The Definitive Collection (2006) [FLAC]\07 - At Last.wav

     Pre-gap length  0:00:02.24

     Peak level 78.3 %
     Track quality 100.0 %
     Test CRC 0FEC3066
     Copy CRC 0FEC3066
     Accurately ripped (confidence 26)  [1AAD55A5]
     Copy OK

Track  8

     Filename L:\Torrents\Etta James - The Definitive Collection (2006) [FLAC]\08 - Don't Cry Baby.wav

     Pre-gap length  0:00:01.43

     Peak level 78.5 %
     Track quality 100.0 %
     Test CRC CBFB755D
     Copy CRC CBFB755D
     Accurately ripped (confidence 26)  [AD4C99BB]
     Copy OK

Track  9

     Filename L:\Torrents\Etta James - The Definitive Collection (2006) [FLAC]\09 - A Sunday Kind of Love.wav

     Pre-gap length  0:00:01.42

     Peak level 78.5 %
     Track quality 100.0 %
     Test CRC D140B57D
     Copy CRC D140B57D
     Accurately ripped (confidence 26)  [3DFBD2C1]
     Copy OK

Track 10

     Filename L:\Torrents\Etta James - The Definitive Collection (2006) [FLAC]\10 - Trust in Me.wav

     Pre-gap length  0:00:01.43

     Peak level 78.5 %
     Track quality 99.9 %
     Test CRC 18E9DD7C
     Copy CRC 18E9DD7C
     Accurately ripped (confidence 26)  [F94C7DDD]
     Copy OK

Track 11

     Filename L:\Torrents\Etta James - The Definitive Collection (2006) [FLAC]\11 - Something's Got a Hold On Me.wav

     Pre-gap length  0:00:01.41

     Peak level 70.4 %
     Track quality 100.0 %
     Test CRC 7FB135A9
     Copy CRC 7FB135A9
     Accurately ripped (confidence 26)  [482E4CEF]
     Copy OK

Track 12

     Filename L:\Torrents\Etta James - The Definitive Collection (2006) [FLAC]\12 - Stop the Wedding.wav

     Pre-gap length  0:00:01.42

     Peak level 69.9 %
     Track quality 100.0 %
     Test CRC D14DA0E5
     Copy CRC D14DA0E5
     Accurately ripped (confidence 26)  [52C0B745]
     Copy OK

Track 13

     Filename L:\Torrents\Etta James - The Definitive Collection (2006) [FLAC]\13 - Pushover.wav

     Pre-gap length  0:00:01.43

     Peak level 62.2 %
     Track quality 99.9 %
     Test CRC D3B996CA
     Copy CRC D3B996CA
     Accurately ripped (confidence 26)  [04ADC5F2]
     Copy OK

Track 14

     Filename L:\Torrents\Etta James - The Definitive Collection (2006) [FLAC]\14 - Tell Mama.wav

     Pre-gap length  0:00:01.42

     Peak level 86.6 %
     Track quality 99.9 %
     Test CRC 08FBE309
     Copy CRC 08FBE309
     Accurately ripped (confidence 26)  [7D4AEAE9]
     Copy OK

Track 15

     Filename L:\Torrents\Etta James - The Definitive Collection (2006) [FLAC]\15 - I'd Rather Go Blind.wav

     Pre-gap length  0:00:01.41

     Peak level 78.4 %
     Track quality 100.0 %
     Test CRC 84274852
     Copy CRC 84274852
     Accurately ripped (confidence 26)  [AFCFBAFB]
     Copy OK

Track 16

     Filename L:\Torrents\Etta James - The Definitive Collection (2006) [FLAC]\16 - Security.wav

     Pre-gap length  0:00:01.42

     Peak level 74.0 %
     Track quality 99.9 %
     Test CRC EA6EAB83
     Copy CRC EA6EAB83
     Accurately ripped (confidence 26)  [87AB29A4]
     Copy OK

Track 17

     Filename L:\Torrents\Etta James - The Definitive Collection (2006) [FLAC]\17 - All the Way Down.wav

     Pre-gap length  0:00:01.42

     Peak level 78.8 %
     Track quality 100.0 %
     Test CRC 3571EB29
     Copy CRC 3571EB29
     Accurately ripped (confidence 26)  [653AA71F]
     Copy OK

Track 18

     Filename L:\Torrents\Etta James - The Definitive Collection (2006) [FLAC]\18 - Take it to the Limit.wav

     Pre-gap length  0:00:01.43

     Peak level 100.0 %
     Track quality 100.0 %
     Test CRC E2C82451
     Copy CRC E2C82451
     Accurately ripped (confidence 26)  [5E4BEEA6]
     Copy OK

Track 19

     Filename L:\Torrents\Etta James - The Definitive Collection (2006) [FLAC]\19 - Damn Your Eyes.wav

     Pre-gap length  0:00:01.43

     Peak level 99.6 %
     Track quality 99.9 %
     Test CRC 5FF79778
     Copy CRC 5FF79778
     Accurately ripped (confidence 26)  [5FF114F8]
     Copy OK

Track 20

     Filename L:\Torrents\Etta James - The Definitive Collection (2006) [FLAC]\20 - Whatever Gets You Through The Night.wav

     Pre-gap length  0:00:01.43

     Peak level 100.0 %
     Track quality 100.0 %
     Test CRC 37F9B212
     Copy CRC 37F9B212
     Accurately ripped (confidence 25)  [E4028DF2]
     Copy OK

Track 21

     Filename L:\Torrents\Etta James - The Definitive Collection (2006) [FLAC]\21 - The Man I Love.wav

     Pre-gap length  0:00:01.43

     Peak level 99.9 %
     Track quality 100.0 %
     Test CRC 6621DE1C
     Copy CRC 6621DE1C
     Accurately ripped (confidence 25)  [5B2236F5]
     Copy OK

Track 22

     Filename L:\Torrents\Etta James - The Definitive Collection (2006) [FLAC]\22 - I've Been Loving You Too Long.wav

     Pre-gap length  0:00:01.42

     Peak level 92.2 %
     Track quality 99.9 %
     Test CRC A9162B77
     Copy CRC A9162B77
     Accurately ripped (confidence 24)  [694ABC6D]
     Copy OK

Track 23

     Filename L:\Torrents\Etta James - The Definitive Collection (2006) [FLAC]\23 - The Sky Is Crying.wav

     Pre-gap length  0:00:01.43

     Peak level 95.5 %
     Track quality 100.0 %
     Test CRC 5E84F6C9
     Copy CRC 5E84F6C9
     Accurately ripped (confidence 24)  [F7A214AD]
     Copy OK


All tracks accurately ripped

No errors occurred

End of status report



Create a new paste based on this one


Comments: