[ create a new paste ] login | about

Link: http://codepad.org/phvt2i1v    [ raw code | fork ]

Plain Text, pasted on Jul 23:
foobar2000 1.3.17 / Dynamic Range Meter 1.1.1
log date: 2018-07-23 08:49:13

--------------------------------------------------------------------------------
Analyzed: Nat King Cole / Supreme Jazz
--------------------------------------------------------------------------------

DR         Peak         RMS     Duration Track
--------------------------------------------------------------------------------
DR11      -0.03 dB   -13.11 dB      3:18 01-Lush Live
DR12      -0.02 dB   -13.59 dB      2:24 02-That┤s My Girl
DR11      -0.02 dB   -12.26 dB      2:46 03-Wish I Were Somebody Else
DR10      -0.02 dB   -14.23 dB      3:29 04-Unforgettable
DR12      -0.02 dB   -13.51 dB      2:37 05-You Stepped Out Of A Dream
DR12      -0.02 dB   -16.52 dB      2:58 06-Tenderly
DR11      -0.02 dB   -12.01 dB      2:23 07-It┤s Crazy
DR11      -0.02 dB   -15.34 dB      2:48 08-Pretend 
DR13      -0.02 dB   -16.21 dB      2:53 09-I Love You For Sentimental Reasons
DR11      -0.03 dB   -13.60 dB      1:55 10-Almost Like Being In Love
DR12      -0.01 dB   -14.78 dB      3:17 11-Red Sails In The Sunset
DR11      -0.02 dB   -13.72 dB      2:54 12-There Goes My Heart
DR11      -0.05 dB   -12.04 dB      2:23 13-This Can┤t Be Love
DR11      -0.02 dB   -13.87 dB      2:54 14-Smile
DR11      -0.02 dB   -13.24 dB      2:45 15-When You┤re Smiling 
DR14      -0.05 dB   -16.75 dB      3:01 16-I Was A Little Too Lonely And You Were Al Little Too Late
DR15      -0.02 dB   -18.23 dB      4:11 17-Blame It On My Youth
DR13      -0.02 dB   -15.80 dB      2:52 18-Darling, Je Vous Aime
DR13      -0.02 dB   -15.68 dB      3:55 19-You Can Depend On Me
DR14      -0.03 dB   -16.65 dB      3:55 20-Candy 
DR12      -0.02 dB   -14.84 dB      2:34 21-A Blossom Fell
DR14      -0.01 dB   -16.93 dB      2:47 22-Two Loves Have I
DR14      -0.02 dB   -17.91 dB      3:35 23-What Is There To Say
DR14      -0.03 dB   -16.65 dB      4:10 24-Sometimes I┤m Happy
--------------------------------------------------------------------------------

Number of tracks:  24
Official DR value: DR12

Samplerate:        88200 Hz
Channels:          2
Bits per sample:   24
Bitrate:           2336 kbps
Codec:             FLAC
================================================================================




Create a new paste based on this one


Comments: