[ create a new paste ] login | about

Link: http://codepad.org/piLHh7NT    [ raw code | fork ]

Plain Text, pasted on Aug 30:
Exact Audio Copy V0.99 prebeta 4 from 23. January 2008

EAC extraction logfile from 18. May 2009, 8:24

Various / Saturday Night Fever (MFSL UDCD 716)

Used drive  : HL-DT-STDVD-RAM GH10L   Adapter: 0  ID: 1

Read mode               : Secure
Utilize accurate stream : Yes
Defeat audio cache      : Yes
Make use of C2 pointers : No

Read offset correction                      : 667
Overread into Lead-In and Lead-Out          : No
Fill up missing offset samples with silence : Yes
Delete leading and trailing silent blocks   : No
Null samples used in CRC calculations       : Yes
Used interface                              : Native Win32 interface for Win NT & 2000
Gap handling                                : Appended to previous track

Used output format              : User Defined Encoder
Selected bitrate                : 896 kBit/s
Quality                         : High
Add ID3 tag                     : No
Command line compressor         : C:\Program Files\FLAC\flac.exe
Additional command line options : -V -8 -T "artist=%a" -T "title=%t" -T "album=%g" -T "date=%y" -T "tracknumber=%n" -T "genre=%m" %s


TOC of the extracted CD

     Track |   Start  |  Length  | Start sector | End sector 
    ---------------------------------------------------------
        1  |  0:00.00 |  4:49.40 |         0    |    21714   
        2  |  4:49.40 |  4:06.10 |     21715    |    40174   
        3  |  8:55.50 |  3:32.25 |     40175    |    56099   
        4  | 12:28.00 |  3:17.65 |     56100    |    70939   
        5  | 15:45.65 |  2:59.62 |     70940    |    84426   
        6  | 18:45.52 |  3:04.08 |     84427    |    98234   
        7  | 21:49.60 |  3:18.25 |     98235    |   113109   
        8  | 25:08.10 |  4:44.72 |    113110    |   134481   
        9  | 29:53.07 |  7:52.30 |    134482    |   169911   
       10  | 37:45.37 |  5:14.30 |    169912    |   193491   
       11  | 42:59.67 |  4:02.18 |    193492    |   211659   
       12  | 47:02.10 |  3:44.65 |    211660    |   228524   
       13  | 50:47.00 |  4:16.27 |    228525    |   247751   
       14  | 55:03.27 |  2:17.10 |    247752    |   258036   
       15  | 57:20.37 |  3:52.13 |    258037    |   275449   
       16  | 61:12.50 |  4:15.30 |    275450    |   294604   
       17  | 65:28.05 | 10:52.70 |    294605    |   343574   


Track  1

     Filename L:\Multimedia\Music\Ripped\Bee Gees - Saturday Night Fever 1977 MFSL UDCD 716\01 Stayin' Alive.wav

     Pre-gap length  0:00:02.00

     Peak level 97.7 %
     Track quality 99.9 %
     Test CRC F4B6C3BF
     Copy CRC F4B6C3BF
     Cannot be verified as accurate (confidence 6)  [3C382A00], AccurateRip returned [9FA347C8]
     Copy OK

Track  2

     Filename L:\Multimedia\Music\Ripped\Bee Gees - Saturday Night Fever 1977 MFSL UDCD 716\02 How Deep Is Your Love.wav

     Peak level 96.1 %
     Track quality 100.0 %
     Test CRC 55C006B7
     Copy CRC 55C006B7
     Cannot be verified as accurate (confidence 6)  [E020C2AA], AccurateRip returned [767538F6]
     Copy OK

Track  3

     Filename L:\Multimedia\Music\Ripped\Bee Gees - Saturday Night Fever 1977 MFSL UDCD 716\03 Night Fever.wav

     Peak level 98.8 %
     Track quality 100.0 %
     Test CRC 2952CEA1
     Copy CRC 2952CEA1
     Cannot be verified as accurate (confidence 6)  [EBC29EAA], AccurateRip returned [C08019D4]
     Copy OK

Track  4

     Filename L:\Multimedia\Music\Ripped\Bee Gees - Saturday Night Fever 1977 MFSL UDCD 716\04 More Than a Woman.wav

     Peak level 93.5 %
     Track quality 100.0 %
     Test CRC D19E25AD
     Copy CRC D19E25AD
     Cannot be verified as accurate (confidence 6)  [3CFB7F72], AccurateRip returned [39F06968]
     Copy OK

Track  5

     Filename L:\Multimedia\Music\Ripped\Bee Gees - Saturday Night Fever 1977 MFSL UDCD 716\05 If I Can't Have You.wav

     Peak level 93.2 %
     Track quality 100.0 %
     Test CRC 7A7251ED
     Copy CRC 7A7251ED
     Cannot be verified as accurate (confidence 6)  [730EF78B], AccurateRip returned [177EFD2D]
     Copy OK

Track  6

     Filename L:\Multimedia\Music\Ripped\Bee Gees - Saturday Night Fever 1977 MFSL UDCD 716\06 A Fifth of Beethoven.wav

     Peak level 97.8 %
     Track quality 100.0 %
     Test CRC A4D58B0E
     Copy CRC A4D58B0E
     Cannot be verified as accurate (confidence 6)  [761F35AD], AccurateRip returned [71A90203]
     Copy OK

Track  7

     Filename L:\Multimedia\Music\Ripped\Bee Gees - Saturday Night Fever 1977 MFSL UDCD 716\07 More Than a Woman.wav

     Peak level 98.3 %
     Track quality 100.0 %
     Test CRC 73E4E1B4
     Copy CRC 73E4E1B4
     Cannot be verified as accurate (confidence 6)  [166EA0F6], AccurateRip returned [ECD4763C]
     Copy OK

Track  8

     Filename L:\Multimedia\Music\Ripped\Bee Gees - Saturday Night Fever 1977 MFSL UDCD 716\08 Manhattan Skyline.wav

     Peak level 96.7 %
     Track quality 100.0 %
     Test CRC 05ABDD94
     Copy CRC 05ABDD94
     Cannot be verified as accurate (confidence 6)  [32700C0F], AccurateRip returned [8E4AD2D7]
     Copy OK

Track  9

     Filename L:\Multimedia\Music\Ripped\Bee Gees - Saturday Night Fever 1977 MFSL UDCD 716\09 Calypso Breakdown.wav

     Peak level 87.0 %
     Track quality 100.0 %
     Test CRC 9543D55A
     Copy CRC 9543D55A
     Cannot be verified as accurate (confidence 6)  [9837549C], AccurateRip returned [6AC49AD2]
     Copy OK

Track 10

     Filename L:\Multimedia\Music\Ripped\Bee Gees - Saturday Night Fever 1977 MFSL UDCD 716\10 Night on Disco Mountain.wav

     Peak level 100.0 %
     Track quality 100.0 %
     Test CRC 428F26C2
     Copy CRC 428F26C2
     Cannot be verified as accurate (confidence 6)  [B580FF87], AccurateRip returned [A86A7407]
     Copy OK

Track 11

     Filename L:\Multimedia\Music\Ripped\Bee Gees - Saturday Night Fever 1977 MFSL UDCD 716\11 Open Sesame.wav

     Peak level 96.3 %
     Track quality 100.0 %
     Test CRC D3AB692A
     Copy CRC D3AB692A
     Cannot be verified as accurate (confidence 6)  [55534ABF], AccurateRip returned [1B8CB8AD]
     Copy OK

Track 12

     Filename L:\Multimedia\Music\Ripped\Bee Gees - Saturday Night Fever 1977 MFSL UDCD 716\12 Jive Talkin'.wav

     Peak level 98.6 %
     Track quality 100.0 %
     Test CRC EF2E25B1
     Copy CRC EF2E25B1
     Cannot be verified as accurate (confidence 6)  [83DE5244], AccurateRip returned [50816460]
     Copy OK

Track 13

     Filename L:\Multimedia\Music\Ripped\Bee Gees - Saturday Night Fever 1977 MFSL UDCD 716\13 You Should Be Dancing.wav

     Peak level 97.8 %
     Track quality 99.9 %
     Test CRC 9525991F
     Copy CRC 9525991F
     Cannot be verified as accurate (confidence 6)  [716319DD], AccurateRip returned [9FD47E7B]
     Copy OK

Track 14

     Filename L:\Multimedia\Music\Ripped\Bee Gees - Saturday Night Fever 1977 MFSL UDCD 716\14 Boogie Shoes.wav

     Peak level 97.9 %
     Track quality 99.9 %
     Test CRC DFDE6DA5
     Copy CRC DFDE6DA5
     Cannot be verified as accurate (confidence 6)  [8315C711], AccurateRip returned [C03B9827]
     Copy OK

Track 15

     Filename L:\Multimedia\Music\Ripped\Bee Gees - Saturday Night Fever 1977 MFSL UDCD 716\15 Salsation.wav

     Peak level 98.3 %
     Track quality 100.0 %
     Test CRC 0BFCF055
     Copy CRC 0BFCF055
     Cannot be verified as accurate (confidence 6)  [F0999D73], AccurateRip returned [63667DCB]
     Copy OK

Track 16

     Filename L:\Multimedia\Music\Ripped\Bee Gees - Saturday Night Fever 1977 MFSL UDCD 716\16 K-Jee.wav

     Peak level 99.3 %
     Track quality 100.0 %
     Test CRC F0952589
     Copy CRC F0952589
     Cannot be verified as accurate (confidence 6)  [9EF6E133], AccurateRip returned [64012203]
     Copy OK

Track 17

     Filename L:\Multimedia\Music\Ripped\Bee Gees - Saturday Night Fever 1977 MFSL UDCD 716\17 Disco Inferno.wav

     Peak level 100.0 %
     Track quality 100.0 %
     Test CRC D777B156
     Copy CRC D777B156
     Cannot be verified as accurate (confidence 6)  [D18B672D], AccurateRip returned [4EC7675F]
     Copy OK


No tracks could be verified as accurate
You may have a different pressing from the one(s) in the database

No errors occurred

End of status report



Create a new paste based on this one


Comments: