[ create a new paste ] login | about

Link: http://codepad.org/plY6PgKU    [ raw code | fork ]

Plain Text, pasted on May 4:
foobar2000 1.3.17 / Dynamic Range Meter 1.1.1
log date: 2018-05-04 11:47:10

--------------------------------------------------------------------------------
Analyzed: Pink Floyd / The Piper At The Gates Of Dawn [2018 Record Store Day Mono Vinyl]
--------------------------------------------------------------------------------

DR         Peak         RMS     Duration Track
--------------------------------------------------------------------------------
DR8       -1.37 dB   -12.64 dB      4:16 01-Astronomy Domine
DR10      -1.55 dB   -12.81 dB      3:09 02-Lucifer Sam
DR9       -1.32 dB   -13.10 dB      3:04 03-Matilda Mother
DR9       -0.42 dB   -13.53 dB      2:46 04-Flaming
DR9       -2.42 dB   -13.02 dB      4:24 05-Pow R. Toc H
DR9       -1.45 dB   -11.94 dB      3:07 06-Take Up Thy Stethoscope And Walk
DR9       -1.93 dB   -12.26 dB      9:39 07-Interstellar Overdrive
DR9       -2.29 dB   -13.92 dB      2:14 08-The Gnome
DR9       -2.67 dB   -14.17 dB      3:52 09-Chapter 24
DR8       -3.97 dB   -16.24 dB      2:10 10-The Scarecrow
DR9       -2.17 dB   -14.21 dB      3:26 11-Bike
--------------------------------------------------------------------------------

Number of tracks:  11
Official DR value: DR9

Samplerate:        44100 Hz
Channels:          2
Bits per sample:   16
Bitrate:           579 kbps
Codec:             FLAC
================================================================================




Create a new paste based on this one


Comments: