[ create a new paste ] login | about

Link: http://codepad.org/po3MIGw9    [ raw code | fork ]

Plain Text, pasted on Jul 6:
foobar2000 1.3.17 / Dynamic Range Meter 1.1.1
log date: 2018-07-05 18:58:38

--------------------------------------------------------------------------------
Analyzed: Stevie Wonder / Talking Book
--------------------------------------------------------------------------------

DR         Peak         RMS     Duration Track
--------------------------------------------------------------------------------
DR12      -7.06 dB   -22.50 dB      2:59 01-You Are The Sunshine Of My Life 
DR13      -7.28 dB   -22.55 dB      6:50 02-Maybe Your Baby
DR10      -8.25 dB   -22.65 dB      4:38 03-You And I 
DR12      -8.68 dB   -23.40 dB      3:02 04-Tuesday Heartbreak
DR11      -6.81 dB   -21.35 dB      4:56 05-You've Got It Bad Girl
DR14      -5.55 dB   -22.27 dB      4:26 06-Superstition
DR12      -8.53 dB   -23.30 dB      3:33 07-Big Brother
DR12      -7.46 dB   -23.05 dB      3:26 08-Blame It On The Sun
DR12      -7.36 dB   -21.88 dB      4:43 09-Lookin' For Another Pure Love
DR12      -7.17 dB   -21.96 dB      4:52 10-I Believe (When I Fall In Love It Will Be Forever)
--------------------------------------------------------------------------------

Number of tracks:  10
Official DR value: DR12

Samplerate:        2822400 Hz / PCM Samplerate: 176400 Hz
Channels:          2
Bits per sample:   1
Bitrate:           5645 kbps
Codec:             DSD64
================================================================================




Create a new paste based on this one


Comments: