[ create a new paste ] login | about

Link: http://codepad.org/pqzYurAU    [ raw code | fork ]

Plain Text, pasted on Feb 15:
foobar2000 1.3.17 / Dynamic Range Meter 1.1.1
log date: 2018-02-14 17:29:50

--------------------------------------------------------------------------------
Analyzed: Peter Paul And Mary / Peter Paul And Mary
--------------------------------------------------------------------------------

DR         Peak         RMS     Duration Track
--------------------------------------------------------------------------------
DR10      -8.72 dB   -21.41 dB      1:35 01-Early In The Morning
DR11      -9.14 dB   -23.67 dB      2:46 02-500 Miles
DR10     -10.79 dB   -23.53 dB      2:53 03-Sorrow
DR10      -8.63 dB   -21.22 dB      2:06 04-This Train
DR10      -8.10 dB   -21.47 dB      2:32 05-Bamboo
DR11      -8.84 dB   -23.40 dB      4:21 06-Its Raining
DR10      -7.43 dB   -21.51 dB      2:23 07-If I Had My Way
DR11      -8.67 dB   -23.89 dB      3:27 08-Cruel War
DR12      -8.75 dB   -23.92 dB      2:56 09-Lemon Tree
DR9       -8.62 dB   -20.01 dB      2:08 10-If I Had A Hammer
DR10      -9.94 dB   -22.13 dB      2:46 11-Autumn To May
DR11      -9.67 dB   -23.90 dB      3:57 12-Where Have All The Flowers Gone
--------------------------------------------------------------------------------

Number of tracks:  12
Official DR value: DR10

Samplerate:        2822400 Hz / PCM Samplerate: 176400 Hz
Channels:          2
Bits per sample:   1
Bitrate:           5645 kbps
Codec:             DSD64
================================================================================




Create a new paste based on this one


Comments: