[ create a new paste ] login | about

Link: http://codepad.org/ptVAoDZO    [ raw code | fork ]

Plain Text, pasted on Mar 21:
foobar2000 1.4.1 / Dynamic Range Meter 1.1.1
log date: 2019-03-20 20:59:32

--------------------------------------------------------------------------------
Analyzed: John Denver / John Denver
--------------------------------------------------------------------------------

DR         Peak         RMS     Duration Track
--------------------------------------------------------------------------------
DR13      -0.72 dB   -16.26 dB      3:35 01-Downhill Stuff (Remastered)
DR12      -0.73 dB   -16.17 dB      2:32 02-Sweet Melinda (Remastered)
DR13      -0.70 dB   -17.53 dB      4:28 03-What's on Your Mind (Remastered)
DR13      -2.39 dB   -19.63 dB      3:43 04-Joseph & Joe (Remastered)
DR12      -2.83 dB   -17.59 dB      1:57 05-Life Is so Good (Remastered)
DR13       0.00 dB   -16.62 dB      4:14 06-Berkeley Woman (Remastered)
DR12      -0.94 dB   -15.46 dB      3:06 07-Johnny B. Goode (Remastered)
DR13       0.00 dB   -16.98 dB      3:12 08-You're so Beautiful (Remastered)
DR14      -1.21 dB   -17.87 dB      3:30 09-Southwind (Remastered)
DR12      -3.19 dB   -18.25 dB      2:47 10-Garden Song (Remastered)
DR15      -1.15 dB   -19.76 dB      5:23 11-Songs Of ... (Remastered)
--------------------------------------------------------------------------------

Number of tracks:  11
Official DR value: DR13

Samplerate:        96000 Hz
Channels:          2
Bits per sample:   24
Bitrate:           2736 kbps
Codec:             FLAC
================================================================================




Create a new paste based on this one


Comments: