[ create a new paste ] login | about

Link: http://codepad.org/q07WSPqF    [ raw code | fork ]

Plain Text, pasted on Jan 31:
foobar2000 1.5 / Dynamic Range Meter 1.1.1
log date: 2020-01-31 19:49:18

--------------------------------------------------------------------------------
Analyzed: Dire Straits / Making Movies MFSL
--------------------------------------------------------------------------------

DR         Peak         RMS     Duration Track
--------------------------------------------------------------------------------
DR12      -1.56 dB   -16.78 dB      8:15 01-Tunnel Of Love
DR14      -0.15 dB   -20.34 dB      6:04 02-Romeo And Juliet
DR12      -1.49 dB   -17.03 dB      6:42 03-Skateaway
DR14      -0.96 dB   -17.57 dB      5:13 04-Expresso Love
DR15      -0.37 dB   -19.44 dB      4:49 05-Hand In Hand
DR12      -1.33 dB   -15.30 dB      3:27 06-Solid Rock
DR14      -2.70 dB   -20.42 dB      4:11 07-Les Boys
--------------------------------------------------------------------------------

Number of tracks:  7
Official DR value: DR13

Samplerate:        44100 Hz
Channels:          2
Bits per sample:   16
Bitrate:           780 kbps
Codec:             FLAC
================================================================================




Create a new paste based on this one


Comments: