[ create a new paste ] login | about

Link: http://codepad.org/q2TmAj5r    [ raw code | fork ]

Plain Text, pasted on Feb 24:
[CUETools log; Date: 2/24/2018 9:20:19 AM; Version: 2.1.5]
Pregap length 00:00:32.
[CTDB TOCID: 0rVOHeNI5ZpsENRGh9LQnkoGKHA-] found.
Track | CTDB Status
  1   | (119/119) Accurately ripped
  2   | (119/119) Accurately ripped
  3   | (119/119) Accurately ripped
  4   | (118/119) Accurately ripped
  5   | (118/119) Accurately ripped
  6   | (119/119) Accurately ripped
  7   | (119/119) Accurately ripped
  8   | (117/119) Accurately ripped
[AccurateRip ID: 000d25d4-00584b54-6a09e108] found.
Track   [  CRC   |   V2   ] Status
 01     [6c0909d4|6c836e34] (08+70/89) Accurately ripped
 02     [27ec45e5|145afe1c] (08+70/89) Accurately ripped
 03     [6a443136|3c9d47b8] (08+70/89) Accurately ripped
 04     [d10f179d|7423b41a] (08+70/89) Accurately ripped
 05     [7756607a|6afd84f9] (08+70/89) Accurately ripped
 06     [794b1291|b70d6136] (08+70/89) Accurately ripped
 07     [e35dce45|b6222120] (08+70/89) Accurately ripped
 08     [d95219d3|8015fd0d] (07+69/87) Accurately ripped
Offsetted by 18:
 01     [924637a8] (02/89) Accurately ripped
 02     [62d95b79] (02/89) Accurately ripped
 03     [c7aa286e] (02/89) Accurately ripped
 04     [bc8caac9] (02/89) Accurately ripped
 05     [9c190acc] (02/89) Accurately ripped
 06     [195cab57] (02/89) Accurately ripped
 07     [eed54c57] (02/89) Accurately ripped
 08     [f066dbbd] (02/87) Accurately ripped

Track Peak [ CRC32  ] [W/O NULL] [  LOG   ]
 --   98.8 [F0D3A804] [C0DEFB12]           
 01   98.8 [AA463D4C] [E314C4AC]   CRC32   
 02   97.7 [0A00DE4E] [A2EFCFA2]   CRC32   
 03   98.8 [061D8263] [9B4B4D35]   CRC32   
 04   95.3 [08B63A11] [D23EAA39]   CRC32   
 05   98.8 [9EA01195] [3E9E664A]   CRC32   
 06   98.8 [59B51A50] [78C46D1E]   CRC32   
 07   98.8 [4F80EF9B] [C08078CC]   CRC32   
 08   98.8 [CAA339F0] [BC9400B8]   CRC32   



Create a new paste based on this one


Comments: