[ create a new paste ] login | about

Link: http://codepad.org/q58LfZNb    [ raw code | fork ]

Plain Text, pasted on Jun 19:
foobar2000 1.2.8 / Dynamic Range Meter 1.1.1
log date: 2013-07-12 10:31:29

--------------------------------------------------------------------------------
Analyzed: Blood, Sweat & Tears / Blood, Sweat & Tears (2005 MFSL Hybrid SACD)
--------------------------------------------------------------------------------

DR         Peak         RMS     Duration Track
--------------------------------------------------------------------------------
DR11      -3.26 dB   -19.15 dB      2:36 01-Variations On A Theme By Eric Satie (1st And 2nd Movements)
DR12      -0.01 dB   -14.87 dB      5:12 02-Smiling Phases
DR11      -0.63 dB   -14.71 dB      3:10 03-Sometimes In Winter
DR10      -0.47 dB   -13.38 dB      3:05 04-More And More
DR13      -0.33 dB   -17.24 dB      4:07 05-And When I Die
DR12      -0.66 dB   -16.13 dB      5:54 06-God Bless The Child
DR12      -0.16 dB   -15.18 dB      4:09 07-Spinning Wheel
DR12      -0.33 dB   -15.07 dB      4:20 08-You've Made Me So Very Happy
DR12      -0.42 dB   -17.08 dB     11:46 09-Blues - Part II
DR9       -4.92 dB   -19.87 dB      1:44 10-Variations On A Theme By Eric Satie (1st Movement)
DR11      -1.31 dB   -15.14 dB      4:38 11-More And More (Live)
DR12      -1.74 dB   -17.42 dB     18:43 12-Smiling Phases (Live)
--------------------------------------------------------------------------------

Number of tracks:  12
Official DR value: DR11

Samplerate:        88200 Hz
Channels:          2
Bits per sample:   24
Bitrate:           2633 kbps
Codec:             FLAC
================================================================================




Create a new paste based on this one


Comments: