[ create a new paste ] login | about

Link: http://codepad.org/q6RSfClI    [ raw code | fork ]

Plain Text, pasted on Dec 31:
foobar2000 1.5 / Dynamic Range Meter 1.1.1
log date: 2020-01-01 00:02:36

--------------------------------------------------------------------------------
Analyzed: Jennifer Warnes / Another Time, Another Place
--------------------------------------------------------------------------------

DR         Peak         RMS     Duration Track
--------------------------------------------------------------------------------
DR12      -2.73 dB   -18.96 dB      3:58 01-Just Breathe
DR13      -4.06 dB   -21.53 dB      3:10 02-Tomorrow Night
DR14      -1.90 dB   -18.66 dB      4:08 03-Once I Was Loved
DR14      -1.86 dB   -19.21 dB      6:15 04-So Sad
DR12      -4.56 dB   -22.08 dB      3:50 05-I See Your Face Before Me
DR14      -0.01 dB   -17.14 dB      4:39 06-I Am The Big Easy
DR12      -0.52 dB   -15.90 dB      4:29 07-The Boys And Me
DR13      -2.85 dB   -18.10 dB      4:50 08-Back Where I Started
DR12      -2.32 dB   -18.64 dB      4:28 09-There's A River
DR11      -2.20 dB   -17.95 dB      4:09 10-Freedom
DR12      -1.81 dB   -17.67 dB      3:43 11-Why Worry
--------------------------------------------------------------------------------

Number of tracks:  11
Official DR value: DR13

Samplerate:        88200 Hz
Channels:          2
Bits per sample:   24
Bitrate:           2436 kbps
Codec:             FLAC
================================================================================




Create a new paste based on this one


Comments: