[ create a new paste ] login | about

Link: http://codepad.org/qEaAzARA    [ raw code | fork ]

Plain Text, pasted on Jun 7:
Exact Audio Copy V1.0 beta 3 from 29. August 2011

EAC extraction logfile from 1. February 2014, 18:50

John Mellencamp / Freedom's Road

Used drive  : PLEXTOR BD-R  PX-B950SA   Adapter: 6  ID: 0

Read mode               : Secure
Utilize accurate stream : Yes
Defeat audio cache      : Yes
Make use of C2 pointers : No

Read offset correction                      : 6
Overread into Lead-In and Lead-Out          : No
Fill up missing offset samples with silence : Yes
Delete leading and trailing silent blocks   : No
Null samples used in CRC calculations       : Yes
Used interface                              : Native Win32 interface for Win NT & 2000

Used output format : Internal WAV Routines
Sample format      : 44.100 Hz; 16 Bit; Stereo


TOC of the extracted CD

     Track |   Start  |  Length  | Start sector | End sector 
    ---------------------------------------------------------
        1  |  0:00.00 |  3:08.04 |         0    |    14103   
        2  |  3:08.04 |  4:39.41 |     14104    |    35069   
        3  |  7:47.45 |  5:11.19 |     35070    |    58413   
        4  | 12:58.64 |  4:30.11 |     58414    |    78674   
        5  | 17:29.00 |  4:18.38 |     78675    |    98062   
        6  | 21:47.38 |  3:22.07 |     98063    |   113219   
        7  | 25:09.45 |  3:47.30 |    113220    |   130274   
        8  | 28:57.00 |  3:08.36 |    130275    |   144410   
        9  | 32:05.36 |  4:41.27 |    144411    |   165512   
       10  | 36:46.63 | 12:02.39 |    165513    |   219701   


Range status and errors

Selected range

     Filename C:\John Mellencamp\2013 John Mellencamp 1978-2012 (19CD Box Set Mercury Records)\2007 Freedom's Road\John Mellencamp - Freedom's Road.wav

     Peak level 100.0 %
     Extraction speed 7.8 X
     Range quality 100.0 %
     Test CRC 7AB31E3D
     Copy CRC 7AB31E3D
     Copy OK

No errors occurred

 
AccurateRip summary
 
Track  1  accurately ripped (confidence 50)  [A3D209FB]  (AR v2)
Track  2  accurately ripped (confidence 50)  [09E8A82D]  (AR v2)
Track  3  accurately ripped (confidence 50)  [8FE60916]  (AR v2)
Track  4  accurately ripped (confidence 50)  [13B28BD5]  (AR v2)
Track  5  accurately ripped (confidence 50)  [E5391C33]  (AR v2)
Track  6  accurately ripped (confidence 50)  [65481381]  (AR v2)
Track  7  accurately ripped (confidence 50)  [BD015140]  (AR v2)
Track  8  accurately ripped (confidence 50)  [A1E5FECA]  (AR v2)
Track  9  accurately ripped (confidence 50)  [2A4A6845]  (AR v2)
Track 10  accurately ripped (confidence 51)  [D8FCA87B]  (AR v2)
 
All tracks accurately ripped

End of status report

==== Log checksum B005A4933BFF724D45F28E9D40419414635CE455BB533C112828D98F3467B49A ====



Create a new paste based on this one


Comments: