[ create a new paste ] login | about

Link: http://codepad.org/qIH1yaXq    [ raw code | fork ]

Plain Text, pasted on Sep 21:
foobar2000 1.3.17 / Dynamic Range Meter 1.1.1
log date: 2018-09-21 09:56:24

--------------------------------------------------------------------------------
Analyzed: Gene Clark / ?
--------------------------------------------------------------------------------

DR         Peak         RMS     Duration Track
--------------------------------------------------------------------------------
DR11      -6.24 dB   -22.36 dB      2:38 01-The Way I Am
DR11      -7.04 dB   -21.31 dB      1:50 02-I'd Feel Better
DR12      -7.56 dB   -23.65 dB      3:05 03-That Girl
DR14      -6.85 dB   -24.59 dB      3:41 04-A Worried Heart
DR11      -6.95 dB   -22.00 dB      2:30 05-If There's No Love
DR12      -6.92 dB   -21.63 dB      3:20 06-Back Street Mirror
DR12      -6.71 dB   -20.36 dB      2:59 07-Don't Let It Fall Through
DR15      -5.73 dB   -23.05 dB      3:11 08-Back To Earth Again
DR14      -5.93 dB   -23.34 dB      3:02 09-The Lighthouse
DR13      -6.01 dB   -21.11 dB      2:55 10-The Awakening Within
DR12      -5.63 dB   -21.55 dB      2:23 11-Sweet Adrienne
DR14      -5.72 dB   -22.87 dB      3:18 12-Walking Through This Lifetime
DR13      -6.63 dB   -23.76 dB      3:27 13-The Sparrow
DR12      -7.22 dB   -21.69 dB      1:55 14-Only Yesterday's Gone
DR11      -7.15 dB   -20.33 dB      3:04 15-She Darked the Sun
DR11      -6.63 dB   -20.27 dB      3:15 16-Roll in My Sweet Baby's Arms
DR11      -7.46 dB   -21.38 dB      1:52 17-She Don't Care About Time
DR10      -7.16 dB   -20.55 dB      4:27 18-Don't This Road Look Rough and Rocky
DR12      -7.08 dB   -21.55 dB      3:07 19-Bars Have Made a Presoner Out Of Me
DR12      -5.60 dB   -19.40 dB      2:39 20-One Hundred Years From Now
DR9       -7.59 dB   -18.91 dB      3:23 21-(The) Letter
DR11      -5.42 dB   -18.20 dB      2:11 22-Still Feeling Blue
DR12      -5.49 dB   -20.90 dB      3:55 23-No Memories Hangin' Round
DR11      -5.71 dB   -18.33 dB      2:36 24-I'll Feel A Whole Lot Better
--------------------------------------------------------------------------------

Number of tracks:  24
Official DR value: DR12

Samplerate:        2822400 Hz / PCM Samplerate: 176400 Hz
Channels:          2
Bits per sample:   1
Bitrate:           5645 kbps
Codec:             DST64
================================================================================




Create a new paste based on this one


Comments: