[ create a new paste ] login | about

Link: http://codepad.org/qIYDmwee    [ raw code | fork ]

Plain Text, pasted on Nov 13:
foobar2000 1.4.6 / Dynamic Range Meter 1.1.1
log date: 2019-11-13 08:22:24

--------------------------------------------------------------------------------
Analyzed: Procol Harum / Procol Harum [2003 Classic Records Remaster]
--------------------------------------------------------------------------------

DR         Peak         RMS     Duration Track
--------------------------------------------------------------------------------
DR9       -1.56 dB   -12.98 dB      4:06 01-Homburg
DR9       -0.85 dB   -11.12 dB      3:29 02-She Wandered Through The Garden Fence
DR12      -1.55 dB   -14.89 dB      3:42 03-Something Following Me
DR11      -3.00 dB   -15.82 dB      1:58 04-Mabel
DR11      -0.68 dB   -14.55 dB      5:09 05-Cerdes (outside the gates of)
DR11      -0.20 dB   -12.46 dB      4:54 06-A Christmas Camel
DR11       0.00 dB   -12.60 dB      2:58 07-Kaleidoscope
DR9       -0.28 dB   -10.97 dB      3:43 08-Salad Days (Are Here Again)
DR11      -0.66 dB   -13.73 dB      2:41 09-Conquistador
DR10      -0.85 dB   -14.34 dB      5:07 10-Repent Walpurgis
DR10      -0.64 dB   -12.90 dB      4:13 11-A Whiter Shade Of Pale [12-inch 45RPM mono]
DR10      -1.04 dB   -12.91 dB      4:11 12-A Whiter Shade Of pale [12-inch 33 RPM mono]
DR10      -0.04 dB   -12.21 dB      4:16 13-A Whiter Shade Of Pale [2003 alternate stereo mix 7-inch]
DR10      -0.23 dB   -12.63 dB      3:00 14-Lime Street [2003 alternate stereo mix 7-inch]
--------------------------------------------------------------------------------

Number of tracks:  14
Official DR value: DR10

Samplerate:        192000 Hz
Channels:          2
Bits per sample:   24
Bitrate:           5549 kbps
Codec:             FLAC
================================================================================




Create a new paste based on this one


Comments: