[ create a new paste ] login | about

Link: http://codepad.org/qIjuHffv    [ raw code | fork ]

Plain Text, pasted on May 22:
foobar2000 1.4.1 / Dynamic Range Meter 1.1.1
log date: 2019-05-21 19:20:00

--------------------------------------------------------------------------------
Analyzed: Skid Row / Skid Row (30th Anniversary Deluxe Edition)
--------------------------------------------------------------------------------

DR         Peak         RMS     Duration Track
--------------------------------------------------------------------------------
DR8       -1.00 dB   -10.54 dB      3:38 01-Big Guns (Remastered)
DR9       -0.90 dB   -11.03 dB      3:10 02-Sweet Little Sister (Remastered)
DR9       -0.95 dB   -11.00 dB      3:25 03-Can't Stand the Heartache (Remastered)
DR10      -0.94 dB   -11.44 dB      2:48 04-Piece of Me (Remastered)
DR9       -1.21 dB   -11.92 dB      3:52 05-18 and Life (Remastered)
DR9       -1.10 dB   -11.97 dB      3:09 06-Rattlesnake Shake (Remastered)
DR9       -1.20 dB   -12.26 dB      3:19 07-Youth Gone Wild (Remastered)
DR10      -1.19 dB   -12.89 dB      3:10 08-Here I Am (Remastered)
DR9       -1.27 dB   -11.81 dB      3:39 09-Makin' a Mess (Remastered)
DR9       -1.15 dB   -12.73 dB      5:15 10-I Remember You (Remastered)
DR9       -0.96 dB   -12.23 dB      4:20 11-Midnight / Tornado (Remastered)
DR9       -1.28 dB   -11.90 dB      4:05 12-Forever (Remastered)
DR9       -0.07 dB   -10.28 dB      4:11 13-Makin' a Mess (Live at The Marquee, Westminster, CA 4/28/89)
DR9        0.00 dB   -10.09 dB      3:07 14-Piece of Me (Live at The Marquee, Westminster, CA 4/28/89)
DR9        0.00 dB   -10.79 dB      4:07 15-Big Guns (Live at The Marquee, Westminster, CA 4/28/89)
DR9       -0.10 dB   -11.58 dB      3:49 16-18 And Life (Live at The Marquee, Westminster, CA 4/28/89)
DR9        0.00 dB   -10.74 dB      3:56 17-Sweet Little Sister (Live at The Marquee, Westminster, CA 4/28/89)
DR9        0.00 dB   -10.54 dB      3:43 18-Rattlesnake Shake (Live at The Marquee, Westminster, CA 4/28/89)
DR9       -0.05 dB   -11.03 dB      5:56 19-I Remember You (Live at The Marquee, Westminster, CA 4/28/89)
DR8        0.00 dB   -11.14 dB      5:34 20-Here I Am (Live at The Marquee, Westminster, CA 4/28/89)
DR8        0.00 dB    -9.60 dB      4:28 21-Youth Gone Wild (Live at The Marquee, Westminster, CA 4/28/89)
DR8        0.00 dB    -9.62 dB      4:53 22-Cold Gin (Live at The Marquee, Westminster, CA 4/28/89)
--------------------------------------------------------------------------------

Number of tracks:  22
Official DR value: DR9

Samplerate:        96000 Hz
Channels:          2
Bits per sample:   24
Bitrate:           3261 kbps
Codec:             FLAC
================================================================================




Create a new paste based on this one


Comments: