[ create a new paste ] login | about

Link: http://codepad.org/qL2S6bP3    [ raw code | fork ]

Plain Text, pasted on Nov 26:
Disc 1
->
[CUETools log; Date: 11/26/2019 1:24:00 PM; Version: 2.1.5]
[CTDB TOCID: cjSoGXtQe5hcxU4Miku5hR.9q_Y-] found.
Track | CTDB Status
  1   | (39/39) Accurately ripped
  2   | (39/39) Accurately ripped
  3   | (39/39) Accurately ripped
  4   | (39/39) Accurately ripped
  5   | (39/39) Accurately ripped
  6   | (39/39) Accurately ripped
  7   | (39/39) Accurately ripped
  8   | (39/39) Accurately ripped
  9   | (39/39) Accurately ripped
 10   | (39/39) Accurately ripped
[AccurateRip ID: 00185755-00b4481a-820ceb0a] found.
Track   [  CRC   |   V2   ] Status
 01     [517859c6|ad1b9f6c] (03+25/28) Accurately ripped
 02     [f3c636e8|601a3f90] (03+25/28) Accurately ripped
 03     [2e3046d8|2ca3682b] (03+25/28) Accurately ripped
 04     [d8ea405f|1258c98d] (03+26/29) Accurately ripped
 05     [dff6caa1|692ca45a] (03+26/29) Accurately ripped
 06     [92c68fe4|d15dcdd4] (03+26/29) Accurately ripped
 07     [0aef96a3|f487daaa] (03+26/29) Accurately ripped
 08     [68a646f4|a2d92e17] (03+26/29) Accurately ripped
 09     [5ef8521d|5eca5dae] (03+26/29) Accurately ripped
 10     [ac6e1916|04854f69] (03+26/29) Accurately ripped

Track Peak [ CRC32  ] [W/O NULL] [  LOG   ]
 --   95.1 [204AB9C8] [18944135]   CRC32   
 01   82.5 [9A7137A3] [3477EDEC]           
 02   47.2 [2C4212FA] [7DC5F786]           
 03   95.1 [BDDB76C3] [7C7AA6D9]           
 04   58.3 [96756B88] [487C1B27]           
 05   48.7 [125ECCA1] [6066581C]           
 06   89.1 [DFBD0DFC] [DF63F275]           
 07   70.3 [78C73AFA] [04E156CF]           
 08   23.6 [6561AD81] [55DC44AF]           
 09   58.6 [C920C19B] [F40BECFA]           
 10   81.8 [83BF5FDE] [B59D1B6C]           
->
=========================================================================================================================================================
->
Disc 2
->
[CUETools log; Date: 11/26/2019 1:23:49 PM; Version: 2.1.5]
[CTDB TOCID: wEHjm00EqVb2foiVaMpgzEtTTmU-] found.
Track | CTDB Status
  1   | (39/39) Accurately ripped
  2   | (39/39) Accurately ripped
  3   | (39/39) Accurately ripped
  4   | (39/39) Accurately ripped
  5   | (39/39) Accurately ripped
  6   | (39/39) Accurately ripped
  7   | (39/39) Accurately ripped
  8   | (39/39) Accurately ripped
  9   | (39/39) Accurately ripped
 10   | (39/39) Accurately ripped
 11   | (39/39) Accurately ripped
 12   | (39/39) Accurately ripped
 13   | (39/39) Accurately ripped
 14   | (39/39) Accurately ripped
 15   | (39/39) Accurately ripped
[AccurateRip ID: 0026b03d-01abbd04-da0f470f] found.
Track   [  CRC   |   V2   ] Status
 01     [2540be96|cac14fcd] (02+25/27) Accurately ripped
 02     [1df48abf|9763089a] (03+25/28) Accurately ripped
 03     [125d6bad|c5e0c236] (03+25/28) Accurately ripped
 04     [d6c0b35a|2db1df92] (03+25/28) Accurately ripped
 05     [6e054320|7f0f9272] (03+25/28) Accurately ripped
 06     [6bc0e717|f5940581] (03+25/28) Accurately ripped
 07     [36547afa|d0dfbdfc] (03+25/28) Accurately ripped
 08     [7737948f|f3d18b00] (03+25/28) Accurately ripped
 09     [57e0208c|e66486d6] (03+25/28) Accurately ripped
 10     [791621fc|7cf6ef27] (03+25/28) Accurately ripped
 11     [d1620296|77c13be0] (03+25/28) Accurately ripped
 12     [f64a65de|1cafaebd] (03+25/28) Accurately ripped
 13     [2401f092|a0526c9b] (03+25/28) Accurately ripped
 14     [056ed127|ca6b1baf] (03+25/28) Accurately ripped
 15     [a063ddce|f185a693] (03+25/28) Accurately ripped

Track Peak [ CRC32  ] [W/O NULL] [  LOG   ]
 --   95.5 [B782CFE3] [58DCC580]   CRC32   
 01   65.9 [A6307CE6] [7A124646]           
 02   70.5 [94227F94] [9C1DCCAD]           
 03   79.4 [951E368D] [EFF33426]           
 04   34.5 [7429AFDE] [8BEE20F3]           
 05   94.7 [5F828CBC] [1B9AEF7F]           
 06   94.8 [6C645D59] [C1A34D2A]           
 07   63.5 [E6217A4E] [DE06FB12]           
 08   58.7 [BD5E991D] [B8DE5597]           
 09   79.8 [EDC8E413] [4715F90A]           
 10   95.5 [7588AC32] [A059CC34]           
 11   86.8 [67683C4E] [8283D40E]           
 12   48.8 [F7209438] [B43FDA6C]           
 13   95.2 [EF8A7E13] [57310B1C]           
 14   49.8 [1CEE3197] [CE926EA2]           
 15   82.7 [CF6D006D] [821CF730]           
->
=========================================================================================================================================================
->
Disc 3
->
[CUETools log; Date: 11/26/2019 1:23:36 PM; Version: 2.1.5]
[CTDB TOCID: PsEBqIqPlj3czCO706.kIvqIJYE-] found.
Track | CTDB Status
  1   | (37/37) Accurately ripped
  2   | (37/37) Accurately ripped
  3   | (37/37) Accurately ripped
  4   | (37/37) Accurately ripped
  5   | (37/37) Accurately ripped
  6   | (37/37) Accurately ripped
  7   | (37/37) Accurately ripped
  8   | (37/37) Accurately ripped
  9   | (37/37) Accurately ripped
 10   | (37/37) Accurately ripped
 11   | (37/37) Accurately ripped
 12   | (37/37) Accurately ripped
[AccurateRip ID: 00191789-00e2f360-ad0bcf0c] found.
Track   [  CRC   |   V2   ] Status
 01     [c5e5a2d7|84a5b171] (03+25/28) Accurately ripped
 02     [c1ea3a79|55a30f11] (03+25/28) Accurately ripped
 03     [0ab146b1|fbe6e1d9] (03+25/28) Accurately ripped
 04     [7883a1b0|b89d5614] (03+25/28) Accurately ripped
 05     [79d2c4aa|df24b0ea] (03+25/28) Accurately ripped
 06     [e97082b4|9b6007be] (03+25/28) Accurately ripped
 07     [eb9a85d5|22533207] (03+25/28) Accurately ripped
 08     [1970e90f|8f29d26a] (03+25/28) Accurately ripped
 09     [6a584339|0f7ad9e0] (03+25/28) Accurately ripped
 10     [f19a4040|30c1bf8a] (03+25/28) Accurately ripped
 11     [a9ffe7af|c31381ee] (03+25/28) Accurately ripped
 12     [4b47d780|62f3573d] (03+25/28) Accurately ripped

Track Peak [ CRC32  ] [W/O NULL] [  LOG   ]
 --   97.8 [F848A079] [AB77B0E4]   CRC32   
 01   97.8 [25391852] [D0339DF4]           
 02   57.3 [B19EB9D9] [3951C8F7]           
 03   88.7 [61B95102] [10FC3EC1]           
 04   48.5 [D0BDF193] [BCA3D455]           
 05   13.3 [52274A57] [E13CCCD4]           
 06   14.2 [894DB18E] [43DEF312]           
 07   66.3 [984DFBF8] [8CDCE7C6]           
 08   31.2 [9D781825] [9F19F989]           
 09   90.9 [96A4918A] [3E2375CA]           
 10   56.6 [43D6F286] [8E80EA4A]           
 11   87.9 [0F8118D8] [CBAB21BF]           
 12   92.4 [3CEB0C9D] [BF7125DB]           




Create a new paste based on this one


Comments: