[ create a new paste ] login | about

Link: http://codepad.org/qMkNhNHI    [ raw code | fork ]

Plain Text, pasted on Feb 15:
foobar2000 1.3.17 / Dynamic Range Meter 1.1.1
log date: 2018-02-14 21:01:20

--------------------------------------------------------------------------------
Analyzed: Rush / Counterparts
--------------------------------------------------------------------------------

DR         Peak         RMS     Duration Track
--------------------------------------------------------------------------------
DR12      -5.76 dB   -19.84 dB      6:04 01-Animate
DR10      -7.50 dB   -19.33 dB      4:48 02-Stick It Out
DR12      -6.04 dB   -19.87 dB      4:49 03-Cut to the Chase
DR12      -6.07 dB   -21.12 dB      5:05 04-Nobody's Here
DR13      -6.12 dB   -20.31 dB      4:40 05-Between Sun & Moon
DR12      -5.70 dB   -19.43 dB      5:48 06-Alien Shore
DR12      -6.03 dB   -20.48 dB      5:03 07-The Speed of Love
DR12      -6.52 dB   -20.03 dB      4:52 08-Double Agent
DR12      -6.31 dB   -21.07 dB      4:08 09-Leave That Thing Alone
DR14      -5.59 dB   -20.77 dB      4:27 10-Cold Fire
DR14      -5.68 dB   -21.34 dB      5:16 11-Everyday Glory
--------------------------------------------------------------------------------

Number of tracks:  11
Official DR value: DR12

Samplerate:        2822400 Hz / PCM Samplerate: 176400 Hz
Channels:          2
Bits per sample:   1
Bitrate:           5645 kbps
Codec:             DSD64
================================================================================




Create a new paste based on this one


Comments: