[ create a new paste ] login | about

Link: http://codepad.org/qQAIF8gH    [ raw code | fork ]

Plain Text, pasted on Nov 24:
foobar2000 1.2.8 / Dynamic Range Meter 1.1.1
log date: 2013-10-21 12:07:41

--------------------------------------------------------------------------------
Analyzed: T. Rex / Electric Warrior (2003 Hybrid SACD)
--------------------------------------------------------------------------------

DR         Peak         RMS     Duration Track
--------------------------------------------------------------------------------
DR15      -0.23 dB   -17.06 dB      3:40 01-Mambo Sun
DR14      -0.26 dB   -17.48 dB      4:28 02-Cosmic Dancer
DR15      -0.23 dB   -17.37 dB      4:12 03-Jeepster
DR14      -0.28 dB   -18.11 dB      3:52 04-Monolith
DR14      -0.29 dB   -18.18 dB      3:05 05-Lean Woman Blues
DR14      -0.01 dB   -17.67 dB      5:03 06-Get It On
DR14      -0.70 dB   -16.17 dB      3:12 07-Planet Queen
DR13      -2.89 dB   -19.02 dB      2:31 08-Girl
DR15      -0.27 dB   -17.96 dB      3:57 09-The Motivator
DR15      -0.17 dB   -18.88 dB      2:26 10-Life's A Gas
DR13      -0.26 dB   -17.63 dB      3:39 11-Rip Off
--------------------------------------------------------------------------------

Number of tracks:  11
Official DR value: DR14

Samplerate:        88200 Hz
Channels:          6
Bits per sample:   24
Bitrate:           7508 kbps
Codec:             FLAC
================================================================================




Create a new paste based on this one


Comments: