[ create a new paste ] login | about

Link: http://codepad.org/qVIR0grn    [ raw code | fork ]

Plain Text, pasted on May 8:
foobar2000 1.4.1 / Dynamic Range Meter 1.1.1
log date: 2019-05-07 19:26:27

--------------------------------------------------------------------------------
Analyzed: ? / ?
--------------------------------------------------------------------------------

DR         Peak         RMS     Duration Track
--------------------------------------------------------------------------------
DR14      -1.96 dB   -17.77 dB      9:53 01-FAT TIME
DR13      -2.84 dB   -19.64 dB     11:12 02-BACK SEAT BETTY
DR12      -4.22 dB   -18.35 dB      5:45 03-SHOUT
DR13      -2.36 dB   -18.14 dB      8:07 04-A√ŹDA
DR13      -2.83 dB   -18.86 dB      6:30 05-THE MAN WITH THE HORN
DR14      -4.39 dB   -19.94 dB     10:45 06-URSULA
--------------------------------------------------------------------------------

Number of tracks:  6
Official DR value: DR13

Samplerate:        2822400 Hz / PCM Samplerate: 176400 Hz
Channels:          2
Bits per sample:   1
Bitrate:           5645 kbps
Codec:             DSD64
================================================================================




Create a new paste based on this one


Comments: