[ create a new paste ] login | about

Link: http://codepad.org/qcwQH9fj    [ raw code | fork ]

Plain Text, pasted on Mar 26:
Exact Audio Copy V0.99 prebeta 4 from 23. January 2008

EAC extraction logfile from 22. November 2008, 18:38

Joni Mitchell / Beginning of Survival

Used drive  : PLEXTOR DVDR   PX-755A   Adapter: 4  ID: 0

Read mode               : Secure
Utilize accurate stream : Yes
Defeat audio cache      : Yes
Make use of C2 pointers : No

Read offset correction                      : 30
Overread into Lead-In and Lead-Out          : No
Fill up missing offset samples with silence : Yes
Delete leading and trailing silent blocks   : No
Null samples used in CRC calculations       : Yes
Used interface                              : Installed external ASPI interface

Used output format : Internal WAV Routines
Sample format      : 44.100 Hz; 16 Bit; Stereo


TOC of the extracted CD

     Track |   Start  |  Length  | Start sector | End sector 
    ---------------------------------------------------------
        1  |  0:00.00 |  3:03.73 |         0    |    13797   
        2  |  3:03.73 |  5:09.37 |     13798    |    37009   
        3  |  8:13.35 |  6:49.64 |     37010    |    67748   
        4  | 15:03.24 |  4:27.07 |     67749    |    87780   
        5  | 19:30.31 |  4:10.02 |     87781    |   106532   
        6  | 23:40.33 |  5:22.39 |    106533    |   130721   
        7  | 29:02.72 |  4:17.47 |    130722    |   150043   
        8  | 33:20.44 |  3:56.19 |    150044    |   167762   
        9  | 37:16.63 |  6:06.26 |    167763    |   195238   
       10  | 43:23.14 |  6:25.52 |    195239    |   224165   
       11  | 49:48.66 |  5:38.04 |    224166    |   249519   
       12  | 55:26.70 |  5:25.34 |    249520    |   273928   
       13  | 60:52.29 |  4:17.32 |    273929    |   293235   
       14  | 65:09.61 |  4:01.47 |    293236    |   311357   
       15  | 69:11.33 |  5:19.24 |    311358    |   335306   
       16  | 74:30.57 |  4:30.69 |    335307    |   355625   


Range status and errors

Selected range

     Filename C:\_NETLAB\Joni Mitchell - Beginning of Survival.wav

     Peak level 100.0 %
     Range quality 99.9 %
     Test CRC 6C5D8AB4
     Copy CRC 6C5D8AB4
     Copy OK

No errors occurred

 
AccurateRip summary
 
Track  1  accurately ripped (confidence 5)  [B09B8E6F]
Track  2  accurately ripped (confidence 5)  [2091E57B]
Track  3  accurately ripped (confidence 5)  [F49B0D84]
Track  4  accurately ripped (confidence 5)  [32AD2429]
Track  5  accurately ripped (confidence 5)  [522270A5]
Track  6  accurately ripped (confidence 5)  [D1ED06C9]
Track  7  accurately ripped (confidence 5)  [7C9C7218]
Track  8  accurately ripped (confidence 5)  [E0371070]
Track  9  accurately ripped (confidence 5)  [A5BFC8C8]
Track 10  accurately ripped (confidence 5)  [126D778E]
Track 11  accurately ripped (confidence 5)  [85FB38A9]
Track 12  accurately ripped (confidence 5)  [04332CDB]
Track 13  accurately ripped (confidence 5)  [F58C5AD9]
Track 14  accurately ripped (confidence 5)  [F633D022]
Track 15  accurately ripped (confidence 5)  [890829A4]
Track 16  accurately ripped (confidence 5)  [723F962F]
 
All tracks accurately ripped

End of status report



Create a new paste based on this one


Comments: