[ create a new paste ] login | about

Link: http://codepad.org/qe2XJFWD    [ raw code | fork ]

Plain Text, pasted on Mar 3:
foobar2000 1.3 / Dynamic Range Meter 1.1.1
log date: 2015-01-09 12:17:33

--------------------------------------------------------------------------------
Analyzed: Pink Floyd / Wish You Were Here (2011 AP Hybrid SACD)
--------------------------------------------------------------------------------

DR         Peak         RMS     Duration Track
--------------------------------------------------------------------------------
DR13      -0.12 dB   -19.74 dB     13:36 01-Shine On You Crazy Diamond (Parts I - V)
DR13      -0.05 dB   -17.97 dB      7:26 02-Welcome To The Machine
DR12      -0.01 dB   -16.40 dB      5:08 03-Have A Cigar
DR12      -1.11 dB   -21.47 dB      5:34 04-Wish You Were Here
DR12      -0.12 dB   -19.20 dB     12:35 05-Shine On You Crazy Diamond (Parts VI - IX)
--------------------------------------------------------------------------------

Number of tracks:  5
Official DR value: DR12

Samplerate:        88200 Hz
Channels:          6
Bits per sample:   24
Bitrate:           6990 kbps
Codec:             FLAC
================================================================================




Create a new paste based on this one


Comments: