[ create a new paste ] login | about

Link: http://codepad.org/qk0kMMJf    [ raw code | fork ]

Plain Text, pasted on Apr 11:
foobar2000 1.2.8 / Dynamic Range Meter 1.1.1
log date: 2013-09-12 10:47:28

--------------------------------------------------------------------------------
Analyzed: Rickie Lee Jones / Pirates (2009 MFSL Hybrid SACD)
--------------------------------------------------------------------------------

DR         Peak         RMS     Duration Track
--------------------------------------------------------------------------------
DR15      -0.20 dB   -20.62 dB      5:02 01-We Belong Together
DR13      -0.44 dB   -18.06 dB      6:21 02-Living It Up
DR14      -0.11 dB   -20.59 dB      3:37 03-Skeletons
DR14      -0.17 dB   -18.18 dB      5:20 04-Woody And Dutch On The Slow Train To Peking
DR13      -0.28 dB   -17.74 dB      3:53 05-Pirates (So Long Lonely Avenue)
DR14      -0.13 dB   -18.27 dB      4:17 06-A Lucky Guy
DR17      -0.08 dB   -22.17 dB      7:54 07-Traces Of Western Slopes
DR14      -0.27 dB   -20.03 dB      2:21 08-The Returns
--------------------------------------------------------------------------------

Number of tracks:  8
Official DR value: DR14

Samplerate:        88200 Hz
Channels:          2
Bits per sample:   24
Bitrate:           2413 kbps
Codec:             FLAC
================================================================================




Create a new paste based on this one


Comments: