[ create a new paste ] login | about

Link: http://codepad.org/qlkxwB4a    [ raw code | fork ]

Plain Text, pasted on Nov 13:
foobar2000 1.4.6 / Dynamic Range Meter 1.1.1
log date: 2019-11-12 21:43:43

--------------------------------------------------------------------------------
Analyzed: Derek and The Dominos / Layla & Other Assorted Love Songs
--------------------------------------------------------------------------------

DR         Peak         RMS     Duration Track
--------------------------------------------------------------------------------
DR12      -6.60 dB   -20.61 dB      3:05 01-I Looked Away
DR11      -8.00 dB   -20.94 dB      5:02 02-Bell Bottom Blues
DR11      -7.23 dB   -21.10 dB      6:21 03-Keep On Growing
DR13      -6.52 dB   -23.91 dB      4:57 04-Nobody Knows You (When You're Down And Out)
DR14      -5.69 dB   -22.07 dB      3:35 05-I Am Yours
DR11      -6.79 dB   -20.95 dB      6:36 06-Anyday
DR12      -6.40 dB   -21.83 dB      9:38 07-Key To The Higway
DR11      -5.78 dB   -20.06 dB      6:38 08-Tell The Truth
DR12      -6.48 dB   -21.00 dB      4:42 09-Why Does Love Got To Be So Sad?
DR13      -7.72 dB   -22.80 dB      6:53 10-Have You Ever Loved A Woman?
DR12      -7.19 dB   -21.19 dB      5:33 11-Little Wing
DR12      -6.63 dB   -20.95 dB      3:49 12-It's Too Late
DR10      -7.36 dB   -20.53 dB      7:04 13-Layla
DR13     -10.90 dB   -27.31 dB      2:52 14-Thorn Tree In The Garden
--------------------------------------------------------------------------------

Number of tracks:  14
Official DR value: DR12

Samplerate:        2822400 Hz / PCM Samplerate: 176400 Hz
Channels:          2
Bits per sample:   1
Bitrate:           5645 kbps
Codec:             DSD64
================================================================================




Create a new paste based on this one


Comments: