[ create a new paste ] login | about

Link: http://codepad.org/qoUqWzkF    [ raw code | fork ]

Plain Text, pasted on Aug 26:
EAC extraction logfile from 2. June 2007, 19:04 for CD
The Nat ''King'' Cole Trio / The Complete Capitol Recordings Of The Nat ''King'' Cole Trio - Disc 10

Used drive  : HL-DT-STDVD-ROM GDR8164B   Adapter: 0  ID: 1
Read mode   : Secure with NO C2, accurate stream, disable cache
Read offset correction : 102
Overread into Lead-In and Lead-Out : No

Used output format : C:\Programmi\Exact Audio Copy\flac.exe   (User Defined Encoder)
                     128 kBit/s
                     Additional command line options : -V -8 -T "artist=%a" -T "title=%t" -T "album=%g" -T "date=%y" -T "tracknumber=%n" -T "genre=%m" %s                  

Other options      : 
    Fill up missing offset samples with silence : Yes
    Delete leading and trailing silent blocks : No
    Installed external ASPI interface


Track  1
     Filename D:\TORRENTS\Nat King Cole 2 - The Complete Capitol Recordings of the N.K.C. Trio (1991) [FLAC] {Mosaic MD18 - 138}\CD 10\01 - Save The Bones For Henry Jones (Cause Henry Don't Eat No Meat) (Q2).wav

     Pre-gap length  0:00:02.42

     Peak level 98.4 %
     Track quality 100.0 %
     Test CRC 9F98B6C4
     Copy CRC 9F98B6C4
     Copy OK

Track  2
     Filename D:\TORRENTS\Nat King Cole 2 - The Complete Capitol Recordings of the N.K.C. Trio (1991) [FLAC] {Mosaic MD18 - 138}\CD 10\02 - My Baby Likes To Be-Bop (And I Like To Be-Bop Too) (Q2).wav

     Pre-gap length  0:00:02.40

     Peak level 84.3 %
     Track quality 99.9 %
     Test CRC BF9E6627
     Copy CRC BF9E6627
     Copy OK

Track  3
     Filename D:\TORRENTS\Nat King Cole 2 - The Complete Capitol Recordings of the N.K.C. Trio (1991) [FLAC] {Mosaic MD18 - 138}\CD 10\03 - Harmony (Q2).wav

     Pre-gap length  0:00:02.30

     Peak level 98.3 %
     Track quality 100.0 %
     Test CRC A3F00996
     Copy CRC A3F00996
     Copy OK

Track  4
     Filename D:\TORRENTS\Nat King Cole 2 - The Complete Capitol Recordings of the N.K.C. Trio (1991) [FLAC] {Mosaic MD18 - 138}\CD 10\04 - You Can't Make Money Dreamin' (Q2).wav

     Pre-gap length  0:00:02.77

     Peak level 83.8 %
     Track quality 100.0 %
     Test CRC BD0E3507
     Copy CRC BD0E3507
     Copy OK

Track  5
     Filename D:\TORRENTS\Nat King Cole 2 - The Complete Capitol Recordings of the N.K.C. Trio (1991) [FLAC] {Mosaic MD18 - 138}\CD 10\05 - There's A Train Out For Dreamland (R2).wav

     Pre-gap length  0:00:02.89

     Peak level 77.4 %
     Track quality 100.0 %
     Test CRC CCC692F0
     Copy CRC CCC692F0
     Copy OK

Track  6
     Filename D:\TORRENTS\Nat King Cole 2 - The Complete Capitol Recordings of the N.K.C. Trio (1991) [FLAC] {Mosaic MD18 - 138}\CD 10\06 - (Go To Sleep) My Sleepy Head (R2).wav

     Pre-gap length  0:00:02.26

     Peak level 91.8 %
     Track quality 99.9 %
     Test CRC 6610E7BD
     Copy CRC 6610E7BD
     Copy OK

Track  7
     Filename D:\TORRENTS\Nat King Cole 2 - The Complete Capitol Recordings of the N.K.C. Trio (1991) [FLAC] {Mosaic MD18 - 138}\CD 10\07 - Nature Boy (R2).wav

     Pre-gap length  0:00:02.46

     Peak level 85.4 %
     Track quality 100.0 %
     Test CRC ABC91792
     Copy CRC ABC91792
     Copy OK

Track  8
     Filename D:\TORRENTS\Nat King Cole 2 - The Complete Capitol Recordings of the N.K.C. Trio (1991) [FLAC] {Mosaic MD18 - 138}\CD 10\08 - Wildroot Charlie (R2).wav

     Pre-gap length  0:00:02.69

     Peak level 93.2 %
     Track quality 100.0 %
     Test CRC DFB4A9C3
     Copy CRC DFB4A9C3
     Copy OK

Track  9
     Filename D:\TORRENTS\Nat King Cole 2 - The Complete Capitol Recordings of the N.K.C. Trio (1991) [FLAC] {Mosaic MD18 - 138}\CD 10\09 - Nursery Rhymes- Mary Had A Little Lamb,London Bridge,Go In And Out The Window,Pop Goes The Weasel (S2).wav

     Pre-gap length  0:00:02.37

     Peak level 98.4 %
     Track quality 100.0 %
     Test CRC CB8EE95B
     Copy CRC CB8EE95B
     Copy OK

Track 10
     Filename D:\TORRENTS\Nat King Cole 2 - The Complete Capitol Recordings of the N.K.C. Trio (1991) [FLAC] {Mosaic MD18 - 138}\CD 10\10 - Old MacDonald Had A Farm (S2).wav

     Pre-gap length  0:00:01.73

     Peak level 92.3 %
     Track quality 100.0 %
     Test CRC D690AAA7
     Copy CRC D690AAA7
     Copy OK

Track 11
     Filename D:\TORRENTS\Nat King Cole 2 - The Complete Capitol Recordings of the N.K.C. Trio (1991) [FLAC] {Mosaic MD18 - 138}\CD 10\11 - The Three Trees (S2).wav

     Pre-gap length  0:00:02.13

     Peak level 84.8 %
     Track quality 99.9 %
     Test CRC 5E38404F
     Copy CRC 5E38404F
     Copy OK

Track 12
     Filename D:\TORRENTS\Nat King Cole 2 - The Complete Capitol Recordings of the N.K.C. Trio (1991) [FLAC] {Mosaic MD18 - 138}\CD 10\12 - Laguna Mood (S2).wav

     Pre-gap length  0:00:01.70

     Peak level 74.3 %
     Track quality 100.0 %
     Test CRC 92BD727A
     Copy CRC 92BD727A
     Copy OK

Track 13
     Filename D:\TORRENTS\Nat King Cole 2 - The Complete Capitol Recordings of the N.K.C. Trio (1991) [FLAC] {Mosaic MD18 - 138}\CD 10\13 - I'm A Little Ashamed (S2).wav

     Pre-gap length  0:00:02.36

     Peak level 98.1 %
     Track quality 99.9 %
     Test CRC 0B7DC8CE
     Copy CRC 0B7DC8CE
     Copy OK

Track 14
     Filename D:\TORRENTS\Nat King Cole 2 - The Complete Capitol Recordings of the N.K.C. Trio (1991) [FLAC] {Mosaic MD18 - 138}\CD 10\14 - Now He Tells Me (T2).wav

     Pre-gap length  0:00:02.20

     Peak level 96.2 %
     Track quality 100.0 %
     Test CRC F3DFCC2B
     Copy CRC F3DFCC2B
     Copy OK

Track 15
     Filename D:\TORRENTS\Nat King Cole 2 - The Complete Capitol Recordings of the N.K.C. Trio (1991) [FLAC] {Mosaic MD18 - 138}\CD 10\15 - That's A Natural Fact (T2).wav

     Pre-gap length  0:00:02.73

     Peak level 88.1 %
     Track quality 100.0 %
     Test CRC EFDAE3AF
     Copy CRC EFDAE3AF
     Copy OK

Track 16
     Filename D:\TORRENTS\Nat King Cole 2 - The Complete Capitol Recordings of the N.K.C. Trio (1991) [FLAC] {Mosaic MD18 - 138}\CD 10\16 - Lament In Chords (U2).wav

     Pre-gap length  0:00:02.33

     Peak level 90.0 %
     Track quality 100.0 %
     Test CRC 3669CA1B
     Copy CRC 3669CA1B
     Copy OK

Track 17
     Filename D:\TORRENTS\Nat King Cole 2 - The Complete Capitol Recordings of the N.K.C. Trio (1991) [FLAC] {Mosaic MD18 - 138}\CD 10\17 - You've Got Another Heart On Your Hands (U2).wav

     Pre-gap length  0:00:02.20

     Peak level 98.4 %
     Track quality 100.0 %
     Test CRC A3C1B3B3
     Copy CRC A3C1B3B3
     Copy OK

Track 18
     Filename D:\TORRENTS\Nat King Cole 2 - The Complete Capitol Recordings of the N.K.C. Trio (1991) [FLAC] {Mosaic MD18 - 138}\CD 10\18 - Baby, I Need You (U2).wav

     Pre-gap length  0:00:02.53

     Peak level 98.0 %
     Track quality 100.0 %
     Test CRC 1CDAEAE2
     Copy CRC 1CDAEAE2
     Copy OK

Track 19
     Filename D:\TORRENTS\Nat King Cole 2 - The Complete Capitol Recordings of the N.K.C. Trio (1991) [FLAC] {Mosaic MD18 - 138}\CD 10\19 - Those Things Money Can't Buy (U2).wav

     Pre-gap length  0:00:02.66

     Peak level 86.1 %
     Track quality 100.0 %
     Test CRC 5EB45508
     Copy CRC 5EB45508
     Copy OK

No errors occured


End of status report



Create a new paste based on this one


Comments: