[ create a new paste ] login | about

Link: http://codepad.org/qpNUbbD6    [ raw code | fork ]

Plain Text, pasted on Oct 2:
foobar2000 1.6 / Dynamic Range Meter 1.1.1
log date: 2020-10-02 02:58:45

--------------------------------------------------------------------------------
Analyzed: David 'Fathead' Newman / Kinda Jazzy Kinda Funky Volume 2 (1)
          Eric Alexander / Kinda Jazzy Kinda Funky Volume 2 (2)
          Jim Payne / Kinda Jazzy Kinda Funky Volume 2 (3)
          Melvin Sparks / Kinda Jazzy Kinda Funky Volume 2 (4-5)
          Mike LeDonne / Kinda Jazzy Kinda Funky Volume 2 (6)
          'Papa' John DeFrancesco / Kinda Jazzy Kinda Funky Volume 2 (7)
          Rodney Jones / Kinda Jazzy Kinda Funky Volume 2 (8-9)
          Steve Turre / Kinda Jazzy Kinda Funky Volume 2 (10)
--------------------------------------------------------------------------------

DR         Peak         RMS     Duration Track
--------------------------------------------------------------------------------
DR11      -0.01 dB   -12.95 dB      4:12 03-Shakabu
DR10      -1.55 dB   -13.25 dB      7:00 05-A Few Miles From Memphis
DR10      -0.45 dB   -11.46 dB      4:25 02-P. Brain
DR8       -0.49 dB   -10.43 dB      7:31 06-Guitar Playah
DR8       -1.08 dB   -11.43 dB      3:18 10-A Love Jam
DR10      -0.96 dB   -13.38 dB      6:45 04-Delilah
DR9       -0.29 dB   -11.25 dB      7:57 09-160 Million Dollar Chinese Man
DR10      -0.44 dB   -11.73 dB      5:16 01-Let The Music Take Your Mind
DR10      -0.47 dB   -11.60 dB      7:01 08-Soul Makossa
DR9       -0.30 dB   -10.70 dB      4:38 07-The Spirits Up Above
--------------------------------------------------------------------------------

Number of tracks:  10
Official DR value: DR10

Samplerate:        88200 Hz
Channels:          2
Bits per sample:   24
Bitrate:           2852 kbps
Codec:             FLAC
================================================================================




Create a new paste based on this one


Comments: