[ create a new paste ] login | about

Link: http://codepad.org/qsWmYGkT    [ raw code | fork ]

Plain Text, pasted on May 8:
foobar2000 1.4.1 / Dynamic Range Meter 1.1.1
log date: 2019-02-07 08:59:18

--------------------------------------------------------------------------------
Analyzed: Miles Davis / Bitches Brew
--------------------------------------------------------------------------------

DR         Peak         RMS     Duration Track
--------------------------------------------------------------------------------
DR11      -1.20 dB   -14.85 dB     20:16 01-Pharaoh's Dance
DR10      -0.77 dB   -14.50 dB     27:03 02-Bitches Brew
--------------------------------------------------------------------------------

Number of tracks:  2
Official DR value: DR11

Samplerate:        88200 Hz
Channels:          2
Bits per sample:   24
Bitrate:           2792 kbps
Codec:             FLAC
================================================================================

foobar2000 1.4.1 / Dynamic Range Meter 1.1.1
log date: 2019-02-07 09:01:48

--------------------------------------------------------------------------------
Analyzed: Miles Davis / Bitches Brew
--------------------------------------------------------------------------------

DR         Peak         RMS     Duration Track
--------------------------------------------------------------------------------
DR10      -1.08 dB   -12.68 dB     17:36 01-Spanish Key
DR10      -1.05 dB   -14.28 dB      4:29 02-John McLaughlin
DR11      -0.19 dB   -13.22 dB     14:07 03-Miles Runs The Voodoo Down
DR10      -0.26 dB   -15.32 dB     10:57 04-Sanctuary
--------------------------------------------------------------------------------

Number of tracks:  4
Official DR value: DR10

Samplerate:        88200 Hz
Channels:          2
Bits per sample:   24
Bitrate:           2757 kbps
Codec:             FLAC
================================================================================




Create a new paste based on this one


Comments: