[ create a new paste ] login | about

Link: http://codepad.org/qtCUAY86    [ raw code | fork ]

Plain Text, pasted on Dec 21:
foobar2000 1.6 / Dynamic Range Meter 1.1.1
log date: 2020-12-21 22:33:10

--------------------------------------------------------------------------------
Analyzed: Vince Guaraldi Trio / A Charlie Brown Christmas (2003 Hybrid SACD)
--------------------------------------------------------------------------------

DR         Peak         RMS     Duration Track
--------------------------------------------------------------------------------
DR12      -0.01 dB   -14.00 dB      5:08 01-O Tannenbaum
DR12      -0.10 dB   -14.56 dB      2:25 02-What Child Is This
DR11      -0.07 dB   -15.80 dB      3:13 03-My Little Drum
DR12      -0.02 dB   -13.78 dB      3:07 04-Linus And Lucy
DR13      -0.08 dB   -16.72 dB      6:06 05-Christmas Time Is Here (Instrumental)
DR12      -0.10 dB   -16.13 dB      2:47 06-Christmas Time Is Here (Vocal)
DR12      -0.14 dB   -14.71 dB      2:27 07-Skating
DR10      -1.68 dB   -16.27 dB      1:56 08-Hark, The Herald Angels Sing
DR12      -0.39 dB   -14.94 dB      3:26 09-Christmas Is Coming
DR9       -4.01 dB   -20.66 dB      1:07 10-Für Elise
DR12      -1.41 dB   -18.36 dB      3:17 11-The Christmas Song
DR12      -0.08 dB   -15.32 dB      5:26 12-Greensleeves
--------------------------------------------------------------------------------

Number of tracks:  12
Official DR value: DR12

Samplerate:        88200 Hz
Channels:          2
Bits per sample:   24
Bitrate:           2571 kbps
Codec:             FLAC
================================================================================




Create a new paste based on this one


Comments: