[ create a new paste ] login | about

Link: http://codepad.org/qyBfL3uh    [ raw code | fork ]

Plain Text, pasted on Jan 31:
[CUETools log; Date: 1/31/2020 7:49:32 PM; Version: 2.1.7]
[CTDB TOCID: HKK.pqhLnCdHNZ1BsAw5WOe3Azo-] found.
Track | CTDB Status
  1   | (30/30) Accurately ripped
  2   | (30/30) Accurately ripped
  3   | (30/30) Accurately ripped
  4   | (30/30) Accurately ripped
  5   | (30/30) Accurately ripped
  6   | (30/30) Accurately ripped
  7   | (30/30) Accurately ripped
[AccurateRip ID: 000bf52c-0045861b-65091207] found.
Track   [  CRC   |   V2   ] Status
 01     [0194a79e|12793208] (00+11/11) Accurately ripped
 02     [f79e6917|06659b5a] (00+11/11) Accurately ripped
 03     [6d4183de|978c4d61] (00+11/11) Accurately ripped
 04     [5eccac65|ba0bc141] (00+11/11) Accurately ripped
 05     [f280c8b7|d0951c2e] (00+11/11) Accurately ripped
 06     [b009931f|a946de44] (00+11/11) Accurately ripped
 07     [9cdaeb3e|0500fa2c] (00+11/11) Accurately ripped

Track Peak [ CRC32  ] [W/O NULL] [  LOG   ]
 --   98.3 [30823D96] [EA53C476]   CRC32   
 01   83.5 [F4AB18DA] [4FBBB6E7]           
 02   98.3 [052814AE] [346FA8D9]           
 03   84.2 [00C45930] [06C5C327]           
 04   89.5 [CDA9DF29] [82A5A4B3]           
 05   95.7 [3B43CC30] [30F8263F]           
 06   85.8 [D76A0A4E] [171A9466]           
 07   73.2 [79ED616E] [12596F2E]           



Create a new paste based on this one


Comments: