[ create a new paste ] login | about

Link: http://codepad.org/r0fUi89H    [ raw code | fork ]

Plain Text, pasted on Jul 23:
foobar2000 1.3.9 / Dynamic Range Meter 1.1.1
log date: 2016-03-30 21:49:15

--------------------------------------------------------------------------------
Analyzed: Fiona Joy Hawkins / 600 Years In A Moment (Hybrid SACD)
--------------------------------------------------------------------------------

DR         Peak         RMS     Duration Track
--------------------------------------------------------------------------------
DR13      -0.79 dB   -19.15 dB      6:25 01-600 Years
DR12      -0.12 dB   -17.14 dB      5:36 02-Naked Love
DR12      -0.12 dB   -16.47 dB      5:55 03-The Journey
DR12      -2.78 dB   -20.67 dB      4:06 04-Earthbound
DR12      -0.12 dB   -15.39 dB      5:38 05-Gliding
DR11      -0.11 dB   -14.65 dB      6:08 06-Tango On Wednesday
DR12      -0.12 dB   -15.30 dB      5:52 07-Running On Joy
DR13      -0.12 dB   -16.89 dB      4:43 08-Ancient Albatross
DR13      -0.12 dB   -17.40 dB      6:23 09-The Lost Ballerina
DR12      -0.23 dB   -16.06 dB      4:18 10-Antarctica
DR13      -0.12 dB   -17.06 dB      5:48 11-Captured Freedom
DR14      -0.86 dB   -21.14 dB      4:55 12-Forgiveness
--------------------------------------------------------------------------------

Number of tracks:  12
Official DR value: DR12

Samplerate:        88200 Hz
Channels:          2
Bits per sample:   24
Bitrate:           2110 kbps
Codec:             FLAC
================================================================================




Create a new paste based on this one


Comments: