[ create a new paste ] login | about

Link: http://codepad.org/r1RRh2vY    [ raw code | fork ]

Plain Text, pasted on Dec 29:
Exact Audio Copy V1.0 beta 2 from 29. April 2011

EAC extraction logfile from 9. September 2013, 23:03

Various Artists / Pure Disco 3

Used drive  : HL-DT-STBD-RE  BH14NS40   Adapter: 0  ID: 2

Read mode               : Secure
Utilize accurate stream : Yes
Defeat audio cache      : Yes
Make use of C2 pointers : No

Read offset correction                      : 6
Overread into Lead-In and Lead-Out          : No
Fill up missing offset samples with silence : Yes
Delete leading and trailing silent blocks   : No
Null samples used in CRC calculations       : Yes
Used interface                              : Native Win32 interface for Win NT & 2000

Used output format              : User Defined Encoder
Selected bitrate                : 1024 kBit/s
Quality                         : High
Add ID3 tag                     : No
Command line compressor         : C:\Program Files (x86)\Exact Audio Copy\Flac\flac.exe
Additional command line options : -V -5 -T "artist=%albumartist%" -T "title=%title%" -T "album=%albumtitle%" -T "date=%year%" -T "genre=%genre%" -T "tracknumber=%tracknr%" %source%


TOC of the extracted CD

     Track |   Start  |  Length  | Start sector | End sector 
    ---------------------------------------------------------
        1  |  0:00.00 |  3:40.55 |         0    |    16554   
        2  |  3:40.55 |  4:20.00 |     16555    |    36054   
        3  |  8:00.55 |  3:45.20 |     36055    |    52949   
        4  | 11:46.00 |  3:36.20 |     52950    |    69169   
        5  | 15:22.20 |  3:26.37 |     69170    |    84656   
        6  | 18:48.57 |  3:30.40 |     84657    |   100446   
        7  | 22:19.22 |  2:58.68 |    100447    |   113864   
        8  | 25:18.15 |  3:39.27 |    113865    |   130316   
        9  | 28:57.42 |  3:56.68 |    130317    |   148084   
       10  | 32:54.35 |  2:56.67 |    148085    |   161351   
       11  | 35:51.27 |  4:01.33 |    161352    |   179459   
       12  | 39:52.60 |  3:00.37 |    179460    |   192996   
       13  | 42:53.22 |  4:15.25 |    192997    |   212146   
       14  | 47:08.47 |  4:09.05 |    212147    |   230826   
       15  | 51:17.52 |  4:35.08 |    230827    |   251459   
       16  | 55:52.60 |  3:37.27 |    251460    |   267761   
       17  | 59:30.12 |  3:57.53 |    267762    |   285589   
       18  | 63:27.65 |  4:35.02 |    285590    |   306216   
       19  | 68:02.67 |  3:25.13 |    306217    |   321604   
       20  | 71:28.05 |  3:35.27 |    321605    |   337756   
       21  | 75:03.32 |  3:24.30 |    337757    |   353086   


Range status and errors

Selected range

     Filename C:\EAC\Various Artists - Pure Disco 3 (1998)\Various Artists - Pure Disco 3.wav

     Peak level 100.0 %
     Extraction speed 5.7 X
     Range quality 100.0 %
     Test CRC 0F38C0ED
     Copy CRC 0F38C0ED
     Copy OK

No errors occurred

 
AccurateRip summary
 
Track  1  accurately ripped (confidence 2)  [2E6D8BB5]  (AR v2)
Track  2  accurately ripped (confidence 2)  [EF134369]  (AR v2)
Track  3  accurately ripped (confidence 2)  [D92AFA6C]  (AR v2)
Track  4  accurately ripped (confidence 2)  [59FD5966]  (AR v2)
Track  5  accurately ripped (confidence 2)  [21489EB5]  (AR v2)
Track  6  accurately ripped (confidence 2)  [1D483ED3]  (AR v2)
Track  7  accurately ripped (confidence 2)  [34D3BE3A]  (AR v2)
Track  8  accurately ripped (confidence 2)  [2E20A618]  (AR v2)
Track  9  accurately ripped (confidence 2)  [56912AC6]  (AR v2)
Track 10  accurately ripped (confidence 2)  [1FD686B2]  (AR v2)
Track 11  accurately ripped (confidence 2)  [6CF4EA4F]  (AR v2)
Track 12  accurately ripped (confidence 2)  [D52369A1]  (AR v2)
Track 13  accurately ripped (confidence 2)  [EFD49EB0]  (AR v2)
Track 14  accurately ripped (confidence 2)  [3D62470F]  (AR v2)
Track 15  accurately ripped (confidence 2)  [23EA452D]  (AR v2)
Track 16  accurately ripped (confidence 2)  [CF1DE9FC]  (AR v2)
Track 17  accurately ripped (confidence 2)  [4FF925EF]  (AR v2)
Track 18  accurately ripped (confidence 2)  [42AD5688]  (AR v2)
Track 19  accurately ripped (confidence 2)  [35126CAC]  (AR v2)
Track 20  accurately ripped (confidence 2)  [3D0FFEFB]  (AR v2)
Track 21  accurately ripped (confidence 2)  [60C7055E]  (AR v2)
 
All tracks accurately ripped

End of status report

==== Log checksum CE0C112106694E05705C2F3BD59BB2886BFF89D861499F899FB76CACD16B1962 ====



Create a new paste based on this one


Comments: