[ create a new paste ] login | about

Link: http://codepad.org/r41fHCtv    [ raw code | fork ]

Plain Text, pasted on Apr 16:
foobar2000 1.5 / Dynamic Range Meter 1.1.1
log date: 2020-04-16 04:01:15

--------------------------------------------------------------------------------
Analyzed: ? / ?
--------------------------------------------------------------------------------

DR         Peak         RMS     Duration Track
--------------------------------------------------------------------------------
DR11      -5.00 dB   -18.30 dB      4:34 01-Rainy Day Women #12 & 35
DR11      -5.75 dB   -18.46 dB      3:48 02-Pledging My Time
DR14      -5.64 dB   -21.68 dB      7:31 03-Visions Of Johanna
DR10      -5.40 dB   -18.45 dB      4:52 04-One of Us Must Know (Sooner or Later)
DR11      -6.22 dB   -18.59 dB      3:06 05-I Want You
DR11      -5.21 dB   -17.07 dB      7:04 06-Stuck Inside of Mobile With The Memphis Blues Again
DR11      -5.24 dB   -17.75 dB      3:55 07-Leopard-Skin Pill-Box Hat
DR12      -6.09 dB   -19.30 dB      4:50 08-Just Like A Woman
DR11      -5.34 dB   -17.70 dB      3:27 09-Most Likely You Go Your Way and I'll Go Mine
DR11      -5.54 dB   -17.68 dB      5:01 10-Temporary Like Achilles
DR11      -5.31 dB   -18.00 dB      4:55 11-Absolutely Sweet Marie
DR12      -5.23 dB   -19.25 dB      4:33 12-4th Time Around
DR10      -5.10 dB   -16.11 dB      3:33 13-Obviously 5 Believers
DR12      -5.14 dB   -19.96 dB     11:18 14-Sad Eyed Lady of The Lowlands
--------------------------------------------------------------------------------

Number of tracks:  14
Official DR value: DR11

Samplerate:        2822400 Hz / PCM Samplerate: 176400 Hz
Channels:          2
Bits per sample:   1
Bitrate:           5645 kbps
Codec:             DSD64
================================================================================




Create a new paste based on this one


Comments: