[ create a new paste ] login | about

Link: http://codepad.org/r4gOcXXb    [ raw code | fork ]

Plain Text, pasted on Nov 19:
foobar2000 1.4.6 / Dynamic Range Meter 1.1.1
log date: 2019-11-19 10:59:03

--------------------------------------------------------------------------------
Analyzed: Foreigner / Double Vision 40 Then And Now Live. Reloaded
--------------------------------------------------------------------------------

DR         Peak         RMS     Duration Track
--------------------------------------------------------------------------------
DR7       -8.00 dB   -16.74 dB      6:32 01-Cold As Ice
DR7       -8.00 dB   -16.35 dB      5:44 02-Head Games
DR8       -8.00 dB   -16.98 dB      5:51 03-Waiting For A Girl Like You
DR8       -8.00 dB   -17.52 dB      4:29 04-Headknocker
DR9       -8.00 dB   -18.81 dB      4:31 05-Say You Will
DR7       -8.00 dB   -16.65 dB      6:56 06-Urgent
DR8       -8.00 dB   -18.57 dB      7:21 07-Starrider
DR7       -8.00 dB   -16.76 dB     12:49 08-Juke Box Hero
DR9       -8.00 dB   -18.51 dB      5:02 09-Feels Like The First Time
DR8       -8.00 dB   -16.66 dB      4:12 10-Double Vision
DR8       -8.00 dB   -19.01 dB      4:53 11-Blue Morning, Blue Day
DR8       -8.00 dB   -17.40 dB      3:13 12-Long, Long Way From Home
DR8       -8.00 dB   -17.31 dB      4:27 13-Dirty White Boy
DR8       -8.00 dB   -18.07 dB      8:44 14-I Want To Know What Love Is
DR6       -8.00 dB   -15.72 dB      6:25 15-Hot Blooded
DR11      -2.41 dB   -16.40 dB      4:54 16-The Flame Still Burns
DR10      -2.91 dB   -15.70 dB      4:23 17-Fool For You Anyway
--------------------------------------------------------------------------------

Number of tracks:  17
Official DR value: DR8

Samplerate:        96000 Hz
Channels:          2
Bits per sample:   24
Bitrate:           2777 kbps
Codec:             FLAC
================================================================================


foobar2000 1.4.6 / Dynamic Range Meter 1.1.1
log date: 2019-11-19 10:58:25

--------------------------------------------------------------------------------
Analyzed: Foreigner / Double Vision 40 Then And Now Live. Reloaded (5.1 Surround)
--------------------------------------------------------------------------------

DR         Peak         RMS     Duration Track
--------------------------------------------------------------------------------
DR14      -6.67 dB   -21.78 dB      6:32 01-Cold As Ice
DR13      -8.07 dB   -22.41 dB      5:44 02-Head Games
DR13      -8.20 dB   -22.93 dB      5:51 03-Waiting For A Girl Like You
DR15      -7.71 dB   -23.38 dB      4:29 04-Headknocker
DR13      -6.44 dB   -24.24 dB      4:31 05-Say You Will
DR14      -7.85 dB   -22.62 dB      6:56 06-Urgent
DR12      -7.32 dB   -22.94 dB      7:21 07-Starrider
DR13      -7.61 dB   -22.05 dB     12:49 08-Juke Box Hero
DR14      -8.45 dB   -22.96 dB      5:02 09-Feels Like The First Time
DR12      -8.48 dB   -22.08 dB      4:12 10-Double Vision
DR13      -4.40 dB   -23.77 dB      4:53 11-Blue Morning, Blue Day
DR13      -8.48 dB   -22.56 dB      3:13 12-Long, Long Way From Home
DR13      -6.52 dB   -20.86 dB      4:27 13-Dirty White Boy
DR13      -6.52 dB   -21.29 dB      8:45 14-I Want To Know What Love Is
DR13      -6.44 dB   -19.93 dB      6:25 15-Hot Blooded
DR14      -5.60 dB   -21.52 dB      4:54 16-The Flame Still Burns
DR12      -2.87 dB   -21.41 dB      4:23 17-Fool For You Anyway
--------------------------------------------------------------------------------

Number of tracks:  17
Official DR value: DR13

Samplerate:        96000 Hz
Channels:          6
Bits per sample:   24
Bitrate:           6465 kbps
Codec:             FLAC
================================================================================




Create a new paste based on this one


Comments: