[ create a new paste ] login | about

Link: http://codepad.org/r5DpSKnq    [ raw code | fork ]

Plain Text, pasted on Dec 28:
foobar2000 1.6 / Dynamic Range Meter 1.1.1
log date: 2020-12-28 19:03:50

--------------------------------------------------------------------------------
Analyzed: John Di Martino's Romantic Jazz Trio / The Beatles In Jazz 2
--------------------------------------------------------------------------------

DR         Peak         RMS     Duration Track
--------------------------------------------------------------------------------
DR6       -0.01 dB    -8.28 dB      4:31 01-For No One
DR6       -2.06 dB   -10.26 dB      3:47 02-Mother Nature's Son
DR6       -1.73 dB   -10.30 dB      5:38 03-Something
DR6       -2.16 dB    -9.31 dB      4:29 04-You Never Give Me Your Money
DR6       -2.67 dB   -10.31 dB      4:51 05-If I Fell
DR6       -2.02 dB    -9.88 dB      4:53 06-She's Leaving Home
DR6       -2.76 dB   -10.41 dB      3:29 07-Till There Was You
DR6       -2.18 dB   -10.09 dB      4:49 08-Hey Jude
DR6       -1.80 dB    -9.49 dB      5:44 09-I'll Follow The Sun
DR5       -2.70 dB   -10.16 dB      5:08 10-Girl
DR5       -2.12 dB    -9.11 dB      4:01 11-You've Got To Hide Your Love Away
DR6       -2.46 dB    -9.35 dB      5:06 12-Oh! Darling
DR6       -2.01 dB    -9.48 dB      5:17 13-Why Don't We Do It In The Road
DR6       -2.49 dB   -10.78 dB      4:13 14-Imagine
--------------------------------------------------------------------------------

Number of tracks:  14
Official DR value: DR6

Samplerate:        88200 Hz
Channels:          2
Bits per sample:   24
Bitrate:           2714 kbps
Codec:             FLAC
================================================================================




Create a new paste based on this one


Comments: