[ create a new paste ] login | about

Link: http://codepad.org/r8ui0Dtw    [ raw code | fork ]

Plain Text, pasted on Feb 7:
foobar2000 1.3.17 / Dynamic Range Meter 1.1.1
log date: 2018-02-07 08:17:36

--------------------------------------------------------------------------------
Analyzed: Best of Scorpions / Scorpions
--------------------------------------------------------------------------------

DR         Peak         RMS     Duration Track
--------------------------------------------------------------------------------
DR11      -6.47 dB   -18.51 dB      3:39 01-Steamrock Fever
DR10      -6.18 dB   -18.05 dB      3:26 02-Pictured Life
DR10      -6.26 dB   -17.93 dB      2:47 03-Robot Man
DR10      -6.75 dB   -18.12 dB      3:13 04-Backstage Queen
DR11      -6.55 dB   -19.45 dB      3:39 05-Speedy's Coming (Live)
DR11      -6.64 dB   -19.11 dB      3:04 06-Hell Cat
DR11      -6.74 dB   -19.44 dB      3:19 07-He's a Woman - She's a Man
DR10      -6.10 dB   -20.26 dB      4:47 08-In Trance
DR10      -6.44 dB   -17.67 dB      3:31 09-Dark Lady
DR11      -6.23 dB   -20.29 dB      4:25 10-The Sails Of Charon
DR10      -6.76 dB   -18.31 dB      3:47 11-Virgin Killer
--------------------------------------------------------------------------------

Number of tracks:  11
Official DR value: DR10

Samplerate:        2822400 Hz / PCM Samplerate: 176400 Hz
Channels:          2
Bits per sample:   1
Bitrate:           5645 kbps
Codec:             DSD64
================================================================================




Create a new paste based on this one


Comments: