[ create a new paste ] login | about

Link: http://codepad.org/rAWownn0    [ raw code | fork ]

Plain Text, pasted on Dec 11:
Exact Audio Copy V0.99 prebeta 4 from 23. January 2008

Отчёт EAC об извлечении, выполненном 2. августа 2011, 13:09

Various / Rock-A-Billy - White Lightnin'

Дисковод: Optiarc DVD RW AD-7173A   Adapter: 0  ID: 1

Режим чтения                 : Достоверность
Использование точного потока : Да
Отключение кэша аудио        : Да
Использование указателей C2  : Нет

Коррекция смещения при чтении                     : 48
Способность читать области Lead-in и Lead-out     : Нет
Заполнение пропущенных сэмплов тишиной            : Да
Удаление блоков с тишиной в начале и конце        : Нет
При вычислениях CRC использовались нулевые сэмплы : Да
Интерфейс                                         : Встроенный Win32-интерфейс для Win NT/2000

Выходной формат : Внутренние WAV-операции
Формат сэмплов  : 44.100 Гц; 16 бит; стерео

TOC извлечённого CD

     Трек |   Старт  | Длительность | Начальный сектор | Конечный сектор
    ---------------------------------------------------------------------
       1  |  0:00.00 |    2:12.36   |           0      |       9935
       2  |  2:12.36 |    2:32.10   |        9936      |      21345
       3  |  4:44.46 |    1:56.48   |       21346      |      30093
       4  |  6:41.19 |    2:03.46   |       30094      |      39364
       5  |  8:44.65 |    1:53.04   |       39365      |      47843
       6  | 10:37.69 |    2:24.07   |       47844      |      58650
       7  | 13:02.01 |    2:20.05   |       58651      |      69155
       8  | 15:22.06 |    2:51.03   |       69156      |      81983
       9  | 18:13.09 |    2:04.70   |       81984      |      91353
      10  | 20:18.04 |    2:23.29   |       91354      |     102107
      11  | 22:41.33 |    1:39.21   |      102108      |     109553
      12  | 24:20.54 |    2:39.68   |      109554      |     121546
      13  | 27:00.47 |    3:18.11   |      121547      |     136407
      14  | 30:18.58 |    2:20.07   |      136408      |     146914
      15  | 32:38.65 |    1:49.36   |      146915      |     155125
      16  | 34:28.26 |    2:13.62   |      155126      |     165162
      17  | 36:42.13 |    2:58.36   |      165163      |     178548
      18  | 39:40.49 |    2:49.36   |      178549      |     191259
      19  | 42:30.10 |    2:07.71   |      191260      |     200855
      20  | 44:38.06 |    2:14.05   |      200856      |     210910

Характеристики диапазона извлечения и сообщения об ошибках

Выбранный диапазон

     Имя файла D:\КОЛЛЕКЦИЯ 12\ROCK-A-BILLY\9\Various - Rock-A-Billy - White Lightnin'.wav

     Пиковый уровень 100.0 %
     Качество диапазона 100.0 %
     CRC копии 23833F0F
     Копирование... OK

Ошибок не произошло

AccurateRip: сводка

Трек  1  нет в базе данных
Трек  2  нет в базе данных
Трек  3  нет в базе данных
Трек  4  нет в базе данных
Трек  5  нет в базе данных
Трек  6  нет в базе данных
Трек  7  нет в базе данных
Трек  8  нет в базе данных
Трек  9  нет в базе данных
Трек 10  нет в базе данных
Трек 11  нет в базе данных
Трек 12  нет в базе данных
Трек 13  нет в базе данных
Трек 14  нет в базе данных
Трек 15  нет в базе данных
Трек 16  нет в базе данных
Трек 17  нет в базе данных
Трек 18  нет в базе данных
Трек 19  нет в базе данных
Трек 20  нет в базе данных

Ни одного трека нет в базе AccurateRip

Конец отчёта


Create a new paste based on this one


Comments: