[ create a new paste ] login | about

Link: http://codepad.org/rArDUzo0    [ raw code | fork ]

Plain Text, pasted on Aug 30:
Exact Audio Copy V1.3 from 2. September 2016

EAC extraction logfile from 15. August 2019, 15:46

Climax Blues Band / FM Live

Used drive  : PLEXTOR BD-R  PX-B950SA   Adapter: 1  ID: 1

Read mode               : Secure
Utilize accurate stream : Yes
Defeat audio cache      : Yes
Make use of C2 pointers : No

Read offset correction                      : 6
Overread into Lead-In and Lead-Out          : No
Fill up missing offset samples with silence : Yes
Delete leading and trailing silent blocks   : No
Null samples used in CRC calculations       : Yes
Used interface                              : Native Win32 interface for Win NT & 2000

Used output format : Internal WAV Routines
Sample format      : 44.100 Hz; 16 Bit; Stereo


TOC of the extracted CD

     Track |   Start  |  Length  | Start sector | End sector 
    ---------------------------------------------------------
        1  |  0:00.00 |  5:47.69 |         0    |    26093   
        2  |  5:47.69 |  3:35.12 |     26094    |    42230   
        3  |  9:23.06 | 11:14.13 |     42231    |    92793   
        4  | 20:37.19 |  4:44.29 |     92794    |   114122   
        5  | 25:21.48 |  5:19.69 |    114123    |   138116   
        6  | 30:41.42 | 11:05.67 |    138117    |   188058   
        7  | 41:47.34 |  7:03.55 |    188059    |   219838   
        8  | 48:51.14 |  6:21.47 |    219839    |   248460   
        9  | 55:12.61 |  3:34.42 |    248461    |   264552   
       10  | 58:47.28 |  3:00.01 |    264553    |   278053   
       11  | 61:47.29 | 10:24.71 |    278054    |   324924   
       12  | 72:12.25 |  6:53.61 |    324925    |   355960   


Range status and errors

Selected range

     Filename C:\Climax Blues Band\2019 The Albums 1973-1976 (4CD Box Set Esoteric Records)\1973 FM Live\Climax Blues Band - FM Live.wav

     Peak level 99.4 %
     Extraction speed 8.6 X
     Range quality 100.0 %
     Test CRC D5BFB669
     Copy CRC D5BFB669
     Copy OK

No errors occurred

 
AccurateRip summary
 
Track  1  cannot be verified as accurate (confidence 6)  [BB7D9B4F], AccurateRip returned [CFD892D1]  (AR v2)
Track  2  cannot be verified as accurate (confidence 6)  [AE39C145], AccurateRip returned [83666E07]  (AR v2)
Track  3  cannot be verified as accurate (confidence 6)  [B65FEBDE], AccurateRip returned [EF84940A]  (AR v2)
Track  4  cannot be verified as accurate (confidence 6)  [277974E5], AccurateRip returned [0D2FCA48]  (AR v2)
Track  5  cannot be verified as accurate (confidence 6)  [969F8A76], AccurateRip returned [9C0F8A18]  (AR v2)
Track  6  cannot be verified as accurate (confidence 6)  [B62F4659], AccurateRip returned [D585BAFE]  (AR v2)
Track  7  cannot be verified as accurate (confidence 6)  [A511B733], AccurateRip returned [FC60FC15]  (AR v2)
Track  8  cannot be verified as accurate (confidence 6)  [EE469C48], AccurateRip returned [4E8D7F10]  (AR v2)
Track  9  cannot be verified as accurate (confidence 6)  [3E5E54FE], AccurateRip returned [349C79B2]  (AR v2)
Track 10  cannot be verified as accurate (confidence 6)  [EB22DA10], AccurateRip returned [C2A9F896]  (AR v2)
Track 11  cannot be verified as accurate (confidence 6)  [BF62C0C9], AccurateRip returned [DB0333D9]  (AR v2)
Track 12  cannot be verified as accurate (confidence 6)  [1D2DFCE3], AccurateRip returned [1705A6F7]  (AR v2)
 
No tracks could be verified as accurate
You may have a different pressing from the one(s) in the database

End of status report

---- CUETools DB Plugin V2.1.6

[CTDB TOCID: _St6Xvo0WtzucMK19FP3fXvKpgs-] found
Submit result: _St6Xvo0WtzucMK19FP3fXvKpgs- has been confirmed
Track | CTDB Status
  1   | (11/11) Accurately ripped
  2   | (11/11) Accurately ripped
  3   | (11/11) Accurately ripped
  4   | (11/11) Accurately ripped
  5   | (11/11) Accurately ripped
  6   | (11/11) Accurately ripped
  7   | (11/11) Accurately ripped
  8   | (11/11) Accurately ripped
  9   | (11/11) Accurately ripped
 10   | (11/11) Accurately ripped
 11   | (11/11) Accurately ripped
 12   | (11/11) Accurately ripped


==== Log checksum 80A5F891FA68B46A24C5BDE79C89136F3772C487276DE15D1806E3FB9BDC9099 ====



Create a new paste based on this one


Comments: