[ create a new paste ] login | about

Link: http://codepad.org/rEcYuU4Q    [ raw code | fork ]

Plain Text, pasted on Dec 16:
Exact Audio Copy V1.0 beta 3 from 29. August 2011

EAC extraction logfile from 20. May 2014, 0:28

Various Artists / Pure... 50s  CD1

Used drive  : PIONEER BD-RW   BDR-206   Adapter: 5  ID: 0

Read mode               : Secure
Utilize accurate stream : Yes
Defeat audio cache      : Yes
Make use of C2 pointers : No

Read offset correction                      : 667
Overread into Lead-In and Lead-Out          : No
Fill up missing offset samples with silence : Yes
Delete leading and trailing silent blocks   : No
Null samples used in CRC calculations       : Yes
Used interface                              : Native Win32 interface for Win NT & 2000

Used output format              : User Defined Encoder
Selected bitrate                : 1024 kBit/s
Quality                         : High
Add ID3 tag                     : No
Command line compressor         : C:\Program Files (x86)\Exact Audio Copy\Flac\flac.exe
Additional command line options : -8 -V -T "ARTIST=%artist%" -T "TITLE=%title%" -T "ALBUM=%albumtitle%" -T "DATE=%year%" -T "TRACKNUMBER=%tracknr%" -T "GENRE=%genre%" -T "COMMENT=%comment%" -T "BAND=%albuminterpret%" -T "ALBUMARTIST=%albuminterpret%" -T "COMPOSER=%composer%" %haslyrics%--tag-from-file=LYRICS="%lyricsfile%"%haslyrics% -T "DISCNUMBER=%cdnumber%" -T "TOTALDISCS=%totalcds%" -T "TOTALTRACKS=%numtracks%" %hascover%--picture="%coverfile%"%hascover% %source% -o %dest%


TOC of the extracted CD

     Track |   Start  |  Length  | Start sector | End sector 
    ---------------------------------------------------------
        1  |  0:00.00 |  2:00.30 |         0    |     9029   
        2  |  2:00.30 |  2:43.60 |      9030    |    21314   
        3  |  4:44.15 |  2:50.36 |     21315    |    34100   
        4  |  7:34.51 |  2:04.70 |     34101    |    43470   
        5  |  9:39.46 |  2:30.01 |     43471    |    54721   
        6  | 12:09.47 |  2:44.11 |     54722    |    67032   
        7  | 14:53.58 |  4:49.46 |     67033    |    88753   
        8  | 19:43.29 |  3:34.06 |     88754    |   104809   
        9  | 23:17.35 |  2:18.67 |    104810    |   115226   
       10  | 25:36.27 |  2:40.19 |    115227    |   127245   
       11  | 28:16.46 |  2:54.58 |    127246    |   140353   
       12  | 31:11.29 |  2:50.06 |    140354    |   153109   
       13  | 34:01.35 |  2:38.61 |    153110    |   165020   
       14  | 36:40.21 |  3:03.72 |    165021    |   178817   
       15  | 39:44.18 |  2:22.13 |    178818    |   189480   
       16  | 42:06.31 |  2:37.36 |    189481    |   201291   
       17  | 44:43.67 |  4:32.42 |    201292    |   221733   


Range status and errors

Selected range

     Filename D:\Сборники (Flac)\VA - Pure... 50s (2012) 4CD (Flac+cue)\CD1\Various Artists - Pure... 50s  CD1.wav

     Peak level 100.0 %
     Extraction speed 4.5 X
     Range quality 99.9 %
     Test CRC 226A6F14
     Copy CRC 226A6F14
     Copy OK

No errors occurred

 
AccurateRip summary
 
Track  1  cannot be verified as accurate (confidence 2)  [76A37E4B], AccurateRip returned [897C718F]  (AR v2)
Track  2  cannot be verified as accurate (confidence 2)  [0D9BE54C], AccurateRip returned [5735D26F]  (AR v2)
Track  3  cannot be verified as accurate (confidence 2)  [41127BFB], AccurateRip returned [9A6DE094]  (AR v2)
Track  4  cannot be verified as accurate (confidence 2)  [5258FA03], AccurateRip returned [913EB8D2]  (AR v2)
Track  5  cannot be verified as accurate (confidence 2)  [6EE84BFC], AccurateRip returned [8F96E120]  (AR v2)
Track  6  cannot be verified as accurate (confidence 2)  [1FC77969], AccurateRip returned [BBA215B7]  (AR v2)
Track  7  cannot be verified as accurate (confidence 2)  [14F301C4], AccurateRip returned [85C01320]  (AR v2)
Track  8  cannot be verified as accurate (confidence 2)  [080FD50A], AccurateRip returned [DDE95A63]  (AR v2)
Track  9  cannot be verified as accurate (confidence 2)  [15CF64CC], AccurateRip returned [C9191561]  (AR v2)
Track 10  cannot be verified as accurate (confidence 2)  [59F13678], AccurateRip returned [72332AE0]  (AR v2)
Track 11  cannot be verified as accurate (confidence 2)  [7E80252B], AccurateRip returned [809F9E5C]  (AR v2)
Track 12  cannot be verified as accurate (confidence 2)  [E65DEC32], AccurateRip returned [BAA397FE]  (AR v2)
Track 13  cannot be verified as accurate (confidence 2)  [AD5FDB4B], AccurateRip returned [C73A114C]  (AR v2)
Track 14  cannot be verified as accurate (confidence 2)  [F176802F], AccurateRip returned [FFC65748]  (AR v2)
Track 15  cannot be verified as accurate (confidence 2)  [63BC9839], AccurateRip returned [746B1288]  (AR v2)
Track 16  cannot be verified as accurate (confidence 2)  [68E6333A], AccurateRip returned [0D62D7B2]  (AR v2)
Track 17  cannot be verified as accurate (confidence 2)  [A57F10AD], AccurateRip returned [DE65FC78]  (AR v2)
 
No tracks could be verified as accurate
You may have a different pressing from the one(s) in the database

End of status report

---- CUETools DB Plugin V2.1.3

[CTDB TOCID: mIZx5mOekNVBkjhTQRa.KN7U73I-] found, Submit result: mIZx5mOekNVBkjhTQRa.KN7U73I- has been confirmed
[b67b4449] (3/3) Accurately ripped


==== Log checksum 9E50893331ECE2663E4E7FB19C48CB5BD07FC15CBFDE59AE029D4994F1A46019 ====



Create a new paste based on this one


Comments: