[ create a new paste ] login | about

Link: http://codepad.org/rExBSyC7    [ raw code | fork ]

Plain Text, pasted on Oct 26:
foobar2000 1.4.6 / Dynamic Range Meter 1.1.1
log date: 2019-10-25 22:57:48

--------------------------------------------------------------------------------
Analyzed: Neil Young / Colorado
--------------------------------------------------------------------------------

DR         Peak         RMS     Duration Track
--------------------------------------------------------------------------------
DR14      -1.49 dB   -18.43 dB      3:02 01-Think Of Me
DR14       0.00 dB   -15.94 dB     13:38 02-She Showed Me Love
DR12      -2.69 dB   -16.65 dB      4:04 03-Olden Days
DR14       0.00 dB   -15.81 dB      4:15 04-Help Me Lose My Mind
DR14      -1.44 dB   -18.94 dB      3:48 05-Green Is Blue
DR13      -0.89 dB   -16.01 dB      3:44 06-Shut It Down
DR13      -2.62 dB   -18.65 dB      6:00 07-Milky Way
DR12      -2.46 dB   -18.18 dB      2:45 08-Eternity
DR12      -2.49 dB   -17.94 dB      3:36 09-Rainbow Of Colors
DR12      -5.26 dB   -20.72 dB      5:36 10-I Do
--------------------------------------------------------------------------------

Number of tracks:  10
Official DR value: DR13

Samplerate:        96000 Hz
Channels:          2
Bits per sample:   24
Bitrate:           2459 kbps
Codec:             FLAC
================================================================================




Create a new paste based on this one


Comments: