[ create a new paste ] login | about

Link: http://codepad.org/rFetvT4z    [ raw code | fork ]

Plain Text, pasted on Sep 10:
foobar2000 1.4.6 / Dynamic Range Meter 1.1.1
log date: 2019-09-10 10:05:08

--------------------------------------------------------------------------------
Analyzed: Iggy Pop / Free
--------------------------------------------------------------------------------

DR         Peak         RMS     Duration Track
--------------------------------------------------------------------------------
DR7       -0.10 dB   -10.79 dB      1:48 01-Free
DR5       -0.10 dB    -6.56 dB      4:19 02-Loves Missing
DR8       -0.09 dB   -10.24 dB      3:30 03-Sonali
DR7       -0.10 dB    -8.97 dB      4:31 04-James Bond
DR6       -0.08 dB    -7.19 dB      4:22 05-Dirty Sanchez
DR4       -0.01 dB    -7.73 dB      3:58 06-Glow In The Dark
DR7       -0.10 dB    -8.27 dB      4:08 07-Page
DR12      -0.11 dB   -15.43 dB      3:13 08-We Are The People
DR7       -0.10 dB    -9.71 dB      1:48 09-Do Not Go Gentle Into That Good Night
DR7       -1.11 dB   -11.09 dB      2:09 10-The Dawn
--------------------------------------------------------------------------------

Number of tracks:  10
Official DR value: DR7

Samplerate:        44100 Hz
Channels:          2
Bits per sample:   24
Bitrate:           1436 kbps
Codec:             FLAC
================================================================================




Create a new paste based on this one


Comments: