[ create a new paste ] login | about

Link: http://codepad.org/rGskp6sb    [ raw code | fork ]

Plain Text, pasted on Apr 20:
foobar2000 1.3.17 / Dynamic Range Meter 1.1.1
log date: 2018-04-19 11:10:14

--------------------------------------------------------------------------------
Analyzed: Isao Tomita / PLANETS Ultimate Edition
--------------------------------------------------------------------------------

DR         Peak         RMS     Duration Track
--------------------------------------------------------------------------------
DR9       -5.10 dB   -25.44 dB     11:08 01-Mars
DR9       -6.11 dB   -25.84 dB      9:22 02-Venus
DR8       -5.52 dB   -24.08 dB      4:44 03-Mercury
DR9       -5.39 dB   -26.82 dB      7:33 04-Jupiter
DR10      -5.61 dB   -30.56 dB      3:24 05-Itokawa and Hayabusa
DR9       -5.12 dB   -25.31 dB      7:59 06-Saturn
DR10      -9.50 dB   -31.03 dB      9:14 07-Uranus - Neptune
--------------------------------------------------------------------------------

Number of tracks:  7
Official DR value: DR9

Samplerate:        2822400 Hz / PCM Samplerate: 176400 Hz
Channels:          6
Bits per sample:   1
Bitrate:           16934 kbps
Codec:             DST64
================================================================================

--------------------------------------------------------------------------------
Analyzed: Isao Tomita / PLANETS Ultimate Edition
--------------------------------------------------------------------------------

DR         Peak         RMS     Duration Track
--------------------------------------------------------------------------------
DR13      -5.21 dB   -22.52 dB     11:07 01-Mars
DR13      -5.20 dB   -22.92 dB      9:22 02-Venus
DR12      -5.11 dB   -21.03 dB      4:44 03-Mercury
DR13      -5.08 dB   -23.83 dB      7:33 04-Jupiter
DR15      -7.41 dB   -27.20 dB      3:24 05-Itokawa and Hayabusa
DR12      -5.74 dB   -22.81 dB      7:59 06-Saturn
DR14     -10.48 dB   -28.73 dB      9:14 07-Uranus - Neptune
--------------------------------------------------------------------------------

Number of tracks:  7
Official DR value: DR13

Samplerate:        2822400 Hz / PCM Samplerate: 176400 Hz
Channels:          2
Bits per sample:   1
Bitrate:           5645 kbps
Codec:             DST64
================================================================================




Create a new paste based on this one


Comments: