[ create a new paste ] login | about

Link: http://codepad.org/rJM8SLQT    [ raw code | fork ]

Plain Text, pasted on Aug 13:
foobar2000 1.4.4 / Dynamic Range Meter 1.1.1
log date: 2019-08-13 10:55:40

--------------------------------------------------------------------------------
Analyzed: The Who / Face Dances
--------------------------------------------------------------------------------

DR         Peak         RMS     Duration Track
--------------------------------------------------------------------------------
DR13       0.00 dB   -14.23 dB      5:37 01-You Better You Bet
DR12       0.00 dB   -14.21 dB      3:45 02-Don't Let Go The Coat
DR12       0.00 dB   -13.86 dB      3:56 03-Cache Cache
DR11       0.00 dB   -12.49 dB      3:09 04-The Quiet One
DR13       0.00 dB   -14.81 dB      4:17 05-Did You Steal My Money
DR13       0.00 dB   -14.62 dB      5:28 06-How Can You Do It Alone
DR13       0.00 dB   -14.15 dB      3:28 07-Daily Records
DR11       0.00 dB   -12.99 dB      4:31 08-You
DR11       0.00 dB   -12.73 dB      4:58 09-Another Tricky Day
DR14       0.00 dB   -14.57 dB      3:10 10-I Like Nightmares
DR13       0.00 dB   -14.46 dB      5:12 11-It's In You
DR11       0.00 dB   -12.59 dB      8:12 12-How Can You Do It Alone
DR9        0.00 dB   -10.26 dB      3:59 13-The Quiet One
--------------------------------------------------------------------------------

Number of tracks:  13
Official DR value: DR12

Samplerate:        96000 Hz
Channels:          2
Bits per sample:   24
Bitrate:           3244 kbps
Codec:             FLAC
================================================================================




Create a new paste based on this one


Comments: