[ create a new paste ] login | about

Link: http://codepad.org/rJVvBVeY    [ raw code | fork ]

Plain Text, pasted on Dec 21:
foobar2000 1.6 / Dynamic Range Meter 1.1.1
log date: 2020-12-21 23:07:46

--------------------------------------------------------------------------------
Analyzed: Eugene Ruffolo & V.A. / Even Santa Gets The Blues
--------------------------------------------------------------------------------

DR         Peak         RMS     Duration Track
--------------------------------------------------------------------------------
DR9       -4.70 dB   -15.73 dB      2:33 01-Let It Snow
DR9       -4.68 dB   -14.81 dB      3:36 02-Here It Is Christmas
DR9       -5.23 dB   -15.25 dB      3:29 03-The Sweetest Part
DR9       -4.93 dB   -15.85 dB      3:28 04-Baby It´s Cold Outside
DR9       -5.11 dB   -15.96 dB      2:34 05-Christmas Time Is Here
DR9       -4.80 dB   -14.94 dB      1:39 06-I Saw Mommy Kissing Santa Claus
DR10      -7.38 dB   -19.76 dB      2:56 07-Away In A Manger
DR9       -6.70 dB   -18.65 dB      3:08 08-The Christmas Song
DR9       -4.86 dB   -15.90 dB      4:03 09-Nothing But A Child
DR11      -5.45 dB   -20.31 dB      2:37 10-Stille Nacht
DR9       -5.38 dB   -16.27 dB      3:04 11-Silver Bells
DR9       -4.48 dB   -14.60 dB      2:08 12-Jingle Bells
DR9       -4.63 dB   -15.75 dB      3:09 13-Even Santa Gets The Blues
DR9       -4.88 dB   -16.36 dB      2:47 14-One Bright Star
DR9       -5.34 dB   -16.38 dB      4:34 15-O Holy Night
DR10      -4.22 dB   -16.06 dB      5:08 16-We Three Kings
--------------------------------------------------------------------------------

Number of tracks:  16
Official DR value: DR9

Samplerate:        2822400 Hz / PCM Samplerate: 176400 Hz
Channels:          2
Bits per sample:   1
Bitrate:           5645 kbps
Codec:             DSD64
================================================================================




Create a new paste based on this one


Comments: